Rammstein – Rosenrot (Remastered)




Artist: Rammstein
Year: 2005/2017
Genre: Metal
Notes: Discogs
Add. Notes: Remastered
Encoder: FLAC
Bitrate: ~5500 kBit/s (192 kHz/24 Bit/s)
Bin/Cue incl.: Yes
Size: 2662 MB
Password: “slam” (without ” “)


http://www.share-online.biz/dl/9XVCLTRPS4
http://www.share-online.biz/dl/67VDLTRPQ8
http://www.share-online.biz/dl/E2JFLTRPG9D
http://www.share-online.biz/dl/IGVFLTRPWE
http://www.share-online.biz/dl/9VWHLTRPHQ6
http://www.share-online.biz/dl/YSVGLTRPWN

https://rapidgator.net/file/28c7a61fa7dddb5817c110fd4930b9f8
https://rapidgator.net/file/54c55ff69555b2ac041938baee16a325
https://rapidgator.net/file/5c727dd21e123485a3ff597af4a60919
https://rapidgator.net/file/83edbddaeda3964aa4a1fa6d00ae4cec
https://rapidgator.net/file/84d5e5fac71f09b2b5a92bf3d4abd7e5
https://rapidgator.net/file/9cafb314b6f08d96dae5b369d4bd93fc

https://uploadbyte.com/0ek6ucyfbmuz
https://uploadbyte.com/2zpyuu1nm3t7
https://uploadbyte.com/94nwe1ec1hc5
https://uploadbyte.com/egqy15gydd1p
https://uploadbyte.com/mr8mxvv3gjns
https://uploadbyte.com/v9gb3hj8x9l4

https://justupload.io/9ngrbwf6c17f
https://justupload.io/f4yq8s60f3ky
https://justupload.io/iz6o6n2qlorv
https://justupload.io/pqojfo1mb9wm
https://justupload.io/v2xgw7a8db42
https://justupload.io/zitvqr1c4rx5

https://uploadever.com/amrfkmjlvo56
https://uploadever.com/ejledz1to1rq
https://uploadever.com/ew57by9uyn1d
https://uploadever.com/i7d89t0g6gbx
https://uploadever.com/r8flmq0hzq7v
https://uploadever.com/u3lgnto54lxw

Tracklist:

A1 - Benzin - 3:46
A2 - Mann Gegen Mann - 3:51
A3 - Rosenrot - 3:55
B1 - Spring - 5:25
B2 - Wo Bist Du - 3:56
B3 - Stirb Nicht Vor Mir (Don't Die 
Before I Do) - 4:06
C1 - Zerstören - 5:29
C2 - Hilf Mir - 4:44
C3 - Te Quiero Puta! - 3:56
D1 - Feuer Und Wasser - 5:13
D2 - Ein Lied - 3:44

EAC-Log, CUE-Sheed & NFO:

Click to open spoiler
REM GENRE Industrial
REM DATE 2005
REM COMMENT UNI-0602527-29662
PERFORMER “Rammstein”
TITLE “Rosenrot”
FILE “Rosenrot.flac” WAVE
TRACK 01 AUDIO
TITLE “Benzin”
INDEX 01 00:00:00
TRACK 02 AUDIO
TITLE “Mann Gegen Mann”
INDEX 01 03:46:00
TRACK 03 AUDIO
TITLE “Rosenrot”
INDEX 01 07:36:42
TRACK 04 AUDIO
TITLE “Spring”
INDEX 01 11:31:19
TRACK 05 AUDIO
TITLE “Wo Bist Du”
INDEX 01 16:55:69
TRACK 06 AUDIO
TITLE “Stirb Nicht Vor Mir (Don’t Die Before I Do)”
INDEX 01 20:51:21
TRACK 07 AUDIO
TITLE “Zerstoeren”
INDEX 01 24:55:00
TRACK 08 AUDIO
TITLE “Hilf Mir”
INDEX 01 30:24:20
TRACK 09 AUDIO
TITLE “Te Quiero Puta!”
INDEX 01 35:08:00
TRACK 10 AUDIO
TITLE “Feuer Und Wasser”
INDEX 01 39:01:50
TRACK 11 AUDIO
TITLE “Ein Lied”
INDEX 01 44:19:50

Leave a Reply

Your email address will not be published. Required fields are marked *

This site uses Akismet to reduce spam. Learn how your comment data is processed.