Rammstein – Rosenrot (Limited Edition)




Artist: Rammstein
Year: 2005
Genre: Metal
Notes: Discogs
Add. Notes: Limited Edition
Cover incl.: Yes
Encoder: FLAC
Bitrate: ~1000 kBit/s (44.1 kHz/16 Bit/s)
Log & Cue incl.: Yes
Size: 614,83 MB
Password: “slam” (without ” “)


All Downloads/Hosters are compatible

Download 1
Turbobit.net
Rapidgator.net
UploadEver.com
KatFile.com
UsersDrive.com
Download 2
Turbobit.net
Rapidgator.net
UploadEver.com
KatFile.com
UsersDrive.com
Download 3
Turbobit.net
Rapidgator.net
UploadEver.com
KatFile.com
UsersDrive.com

Tracklist:

1 - Benzin - 3:46
2 - Mann Gegen Mann - 3:50
3 - Rosenrot - 3:54
4 - Spring - 5:24
5 - Wo Bist Du - 3:55
6 - Stirb Nicht Vor Mir (Don't Die Before I Do) - 4:05
7 - Zerstören - 5:28
8 - Hilf Mir - 4:43
9 - Te Quiero Puta! - 3:55
10 - Feuer Und Wasser - 5:17
11 - Ein Lied - 3:43

EAC-Log, CUE-Sheed & NFO:

Click to open spoiler

Exact Audio Copy V0.99 prebeta 3 from 28. July 2007

EAC Auslese-Logdatei vom 11. Juli 2008, 1:11

Rammstein / Rosenrot – Limited Edition

Benutztes Laufwerk : SONY DVD RW DW-Q31A Adapter: 0 ID: 0

Lesemodus : Sicher
Benutze Accurate Stream : Ja
Audio Puffer abgeschaltet : Ja
Benutze C2 Fehlerinformationen : Nein

Leseoffset Korrektur : 6
Überlesen in das Lead-In und Lead-Out : Nein
Fülle fehlende Offsetsample mit Stille auf : Ja
Lösche führende und nachfolgende stille Blöcke : Nein
Null Samples gehen in CRC Berechnungen ein : Ja
Benutzte Schnittstelle : Installierte externe ASPI Schnittstelle

Benutztes Ausgabeformat : Interne WAV Routinen
Sampleformat : 44.100 Hz; 16 Bit; Stereo

TOC der ausgelesenen CD

Track | Start | Länge | Startsektor | Endsektor
——————————————————-
1 | 0:00.00 | 3:46.00 | 0 | 16949
2 | 3:46.00 | 3:50.42 | 16950 | 34241
3 | 7:36.42 | 3:54.53 | 34242 | 51844
4 | 11:31.20 | 5:24.50 | 51845 | 76194
5 | 16:55.70 | 3:55.27 | 76195 | 93846
6 | 20:51.22 | 4:05.20 | 93847 | 112241
7 | 24:56.42 | 5:28.70 | 112242 | 136911
8 | 30:25.37 | 4:43.66 | 136912 | 158202
9 | 35:09.28 | 3:55.47 | 158203 | 175874
10 | 39:05.00 | 5:17.55 | 175875 | 199704
11 | 44:22.55 | 3:43.36 | 199705 | 216465

Bereichsstatus und Fehler

Gewählter Bereich

Dateiname C:\Rammstein – Complete Discography\Albums\2005 – Rosenrot\Rammstein – Rosenrot – Limited Edition.wav

Spitzenpegel 99.9 %
Bereichsqualität 100.0 %
Kopie CRC 1DA19E91
Kopie OK

Keine Fehler aufgetreten

AccurateRip Übersicht

Track 1 akkurat gelesen (Zuversicht 140) [4AE29A48]
Track 2 akkurat gelesen (Zuversicht 140) [4EBD7C25]
Track 3 akkurat gelesen (Zuversicht 137) [F2BD323E]
Track 4 akkurat gelesen (Zuversicht 138) [EDAC905C]
Track 5 akkurat gelesen (Zuversicht 141) [506D5818]
Track 6 akkurat gelesen (Zuversicht 139) [9B6C5A67]
Track 7 akkurat gelesen (Zuversicht 138) [58502A72]
Track 8 akkurat gelesen (Zuversicht 138) [9BC8298A]
Track 9 akkurat gelesen (Zuversicht 140) [2BD6257D]
Track 10 akkurat gelesen (Zuversicht 140) [D135465A]
Track 11 akkurat gelesen (Zuversicht 139) [491849B9]

Alle Tracks wurden akkurat gelesen

Ende des Statusreports

REM GENRE Metal
REM DISCID 940B460B
REM COMMENT “ExactAudioCopy v0.99pb3”
PERFORMER “Rammstein”
TITLE “Rosenrot – Limited Edition”
FILE “Rammstein – Rosenrot – Limited Edition.flac” WAVE
TRACK 01 AUDIO
TITLE “Benzin”
PERFORMER “Rammstein”
INDEX 01 00:00:00
TRACK 02 AUDIO
TITLE “Mann Gegen Mann”
PERFORMER “Rammstein”
INDEX 01 03:46:00
TRACK 03 AUDIO
TITLE “Rosenrot”
PERFORMER “Rammstein”
INDEX 01 07:36:42
TRACK 04 AUDIO
TITLE “Spring”
PERFORMER “Rammstein”
INDEX 01 11:31:20
TRACK 05 AUDIO
TITLE “Wo Bist Du”
PERFORMER “Rammstein”
INDEX 00 16:55:69
INDEX 01 16:55:70
TRACK 06 AUDIO
TITLE “Stirb Nicht Vor Mir (Don’t Die Before I Do)”
PERFORMER “Rammstein”
INDEX 01 20:51:22
TRACK 07 AUDIO
TITLE “Zerstoeren”
PERFORMER “Rammstein”
INDEX 01 24:56:42
TRACK 08 AUDIO
TITLE “Hilf Mir”
PERFORMER “Rammstein”
INDEX 01 30:25:37
TRACK 09 AUDIO
TITLE “Te Quiero Puta!”
PERFORMER “Rammstein”
INDEX 01 35:09:28
TRACK 10 AUDIO
TITLE “Feuer Und Wasser”
PERFORMER “Rammstein”
INDEX 01 39:05:00
TRACK 11 AUDIO
TITLE “Ein Lied”
PERFORMER “Rammstein”
INDEX 00 44:17:73
INDEX 01 44:22:55


Leave a Reply

Your email address will not be published. Required fields are marked *

This site uses Akismet to reduce spam. Learn how your comment data is processed.