Rammstein – Reise, Reise




Artist: Rammstein
Year: 2004
Genre: Rock
Notes: Discogs
Add. Notes:
Cover incl.: Yes
Encoder: FLAC
Bitrate: ~1000 kBit/s (44.1 kHz/16 Bit/s)
Log & Cue incl.: Yes
Size: 563,65 MB
Password: “slam” (without ” “)


All Downloads/Hosters are compatible

Download 1
Turbobit.net
Rapidgator.net
UploadEver.com
KatFile.com
UsersDrive.com
Download 2
Turbobit.net
Rapidgator.net
UploadEver.com
KatFile.com
UsersDrive.com
Download 3
Turbobit.net
Rapidgator.net
UploadEver.com
KatFile.com
UsersDrive.com

Tracklist:

1 - Reise, Reise - 4:12
2 - Mein Teil - 4:33
3 - Dalai Lama - 5:39
4 - Keine Lust - 3:43
5 - Los - 4:24
6 - Amerika - 3:47
7 - Moskau - 4:17
8 - Morgenstern - 4:00
9 - Stein Um Stein - 3:53
10 - Ohne Dich - 4:32
11 - Amour - 4:51

EAC-Log, CUE-Sheed & NFO:

Click to open spoiler
Exact Audio Copy V0.99 prebeta 5 from 4. May 2009

EAC Auslese-Logdatei vom 6. Februar 2010, 21:32

Rammstein / Reise, Reise

Benutztes Laufwerk : HL-DT-STDVDRAM GSA-H42N Adapter: 0 ID: 0

Lesemodus : Sicher
Benutze Accurate Stream : Ja
Audio Puffer abgeschaltet : Ja
Benutze C2 Fehlerinformationen : Nein

Leseoffset Korrektur : 667
Überlesen in das Lead-In und Lead-Out : Nein
Fülle fehlende Offsetsample mit Stille auf : Ja
Lösche führende und nachfolgende stille Blöcke : Nein
Null Samples gehen in CRC Berechnungen ein : Ja
Benutzte Schnittstelle : Installierte externe ASPI Schnittstelle

Benutztes Ausgabeformat : Interne WAV Routinen
Sampleformat : 44.100 Hz; 16 Bit; Stereo

TOC der ausgelesenen CD

Track | Start | Länge | Startsektor | Endsektor
——————————————————-
1 | 0:36.01 | 4:11.12 | 2701 | 21537
2 | 4:47.13 | 4:32.30 | 21538 | 41967
3 | 9:19.43 | 5:38.37 | 41968 | 67354
4 | 14:58.05 | 3:42.70 | 67355 | 84074
5 | 18:41.00 | 4:25.09 | 84075 | 103958
6 | 23:06.09 | 3:46.57 | 103959 | 120965
7 | 26:52.66 | 4:16.23 | 120966 | 140188
8 | 31:09.14 | 3:59.66 | 140189 | 158179
9 | 35:09.05 | 3:56.22 | 158180 | 175901
10 | 39:05.27 | 4:32.17 | 175902 | 196318
11 | 43:37.44 | 4:50.67 | 196319 | 218135

Bereichsstatus und Fehler

Gewählter Bereich

Dateiname K:\Rammstein – Discography\Albums\2004 – Reise,Reise\Rammstein – Reise, Reise.wav

Spitzenpegel 99.9 %
Bereichsqualität 100.0 %
Test CRC C559B98A
Kopie CRC C559B98A
Kopie OK

Keine Fehler aufgetreten

AccurateRip Übersicht

Track 1 akkurat gelesen (Zuversicht 200) [C08C68C4]
Track 2 akkurat gelesen (Zuversicht 200) [397A821A]
Track 3 akkurat gelesen (Zuversicht 200) [0E0FB935]
Track 4 akkurat gelesen (Zuversicht 200) [CA831470]
Track 5 akkurat gelesen (Zuversicht 200) [373DCF6D]
Track 6 akkurat gelesen (Zuversicht 200) [8C939BEC]
Track 7 akkurat gelesen (Zuversicht 200) [74E4B929]
Track 8 akkurat gelesen (Zuversicht 200) [D4A0F07A]
Track 9 akkurat gelesen (Zuversicht 200) [B36B414E]
Track 10 akkurat gelesen (Zuversicht 200) [387FDAB0]
Track 11 akkurat gelesen (Zuversicht 200) [D125795F]

Alle Tracks wurden akkurat gelesen

Ende des Statusreports

REM GENRE “Industrial Metal”
REM DATE 2004
REM DISCID 920B380B
REM COMMENT “ExactAudioCopy v0.99pb5”
PERFORMER “Rammstein”
TITLE “Reise, Reise”
FILE “Rammstein – Reise, Reise.flac” WAVE
TRACK 01 AUDIO
TITLE “Reise, Reise”
PERFORMER “Rammstein”
INDEX 00 00:00:00
INDEX 01 00:36:01
TRACK 02 AUDIO
TITLE “Mein Teil”
PERFORMER “Rammstein”
INDEX 01 04:47:13
TRACK 03 AUDIO
TITLE “Dalai Lama”
PERFORMER “Rammstein”
INDEX 01 09:19:43
TRACK 04 AUDIO
TITLE “Keine Lust”
PERFORMER “Rammstein”
INDEX 01 14:58:05
TRACK 05 AUDIO
TITLE “Los”
PERFORMER “Rammstein”
INDEX 01 18:41:00
TRACK 06 AUDIO
TITLE “Amerika”
PERFORMER “Rammstein”
INDEX 00 23:04:39
INDEX 01 23:06:09
TRACK 07 AUDIO
TITLE “Moskau”
PERFORMER “Rammstein”
INDEX 01 26:52:66
TRACK 08 AUDIO
TITLE “Morgenstern”
PERFORMER “Rammstein”
INDEX 01 31:09:14
TRACK 09 AUDIO
TITLE “Stein um Stein”
PERFORMER “Rammstein”
INDEX 01 35:09:05
TRACK 10 AUDIO
TITLE “Ohne Dich”
PERFORMER “Rammstein”
INDEX 00 39:01:35
INDEX 01 39:05:27
TRACK 11 AUDIO
TITLE “Amour”
PERFORMER “Rammstein”
INDEX 00 43:36:40
INDEX 01 43:37:44


Leave a Reply

Your email address will not be published. Required fields are marked *

This site uses Akismet to reduce spam. Learn how your comment data is processed.