Rammstein – Reise Reise (Remastered)




Artist: Rammstein
Year: 2005/2017
Genre: Metal
Notes: Discogs
Add. Notes: Remastered
Cover incl.: Yes
Encoder: FLAC
Bitrate: ~5500 kBit/s (192 kHz/24 Bit/s)
Log & Cue incl.: Yes
Size: 2561 MB
Password: “slam” (without ” “)


All Downloads/Hosters are compatible

Download 1
Turbobit.net
Rapidgator.net
UploadByte.com
UploadEver.com
Download 2
Turbobit.net
Rapidgator.net
UploadByte.com
UploadEver.com
Download 3
Turbobit.net
Rapidgator.net
UploadByte.com
UploadEver.com

Tracklist:

A1 - Reise, Reise - 4:12
A2 - Mein Teil - 4:33
A3 - Dalai Lama - 5:39
B1 - Keine Lust - 3:43
B2 - Los - 4:24
B3 - Amerika - 3:47
C1 - Moskau - 4:17
C2 - Morgenstern - 4:00
C3 - Stein Um Stein - 3:53
D1 - Ohne Dich - 4:32
D2 - Amour - 4:51

EAC-Log, CUE-Sheed & NFO:

Click to open spoiler
REM GENRE Industrial
REM DATE 2005
REM COMMENT UNI-0602527-29662
PERFORMER “Rammstein”
TITLE “Reise, Reise”
FILE “Reise, Reise.flac” WAVE
TRACK 01 AUDIO
TITLE “Reise, Reise”
INDEX 01 00:00:00
TRACK 02 AUDIO
TITLE “Mein Teil”
INDEX 01 04:11:34
TRACK 03 AUDIO
TITLE “Dalai Lama”
INDEX 01 08:43:65
TRACK 04 AUDIO
TITLE “Keine Lust”
INDEX 01 14:21:66
TRACK 05 AUDIO
TITLE “Los”
INDEX 01 18:04:61
TRACK 06 AUDIO
TITLE “Amerika”
INDEX 01 22:30:00
TRACK 07 AUDIO
TITLE “Moskau”
INDEX 01 26:20:14
TRACK 08 AUDIO
TITLE “Morgenstern”
INDEX 01 30:36:37
TRACK 09 AUDIO
TITLE “Stein Um Stein”
INDEX 01 34:36:26
TRACK 10 AUDIO
TITLE “Ohne Dich”
INDEX 01 38:31:49
TRACK 11 AUDIO
TITLE “Amour”
INDEX 01 43:03:66

Leave a Reply

Your email address will not be published. Required fields are marked *

This site uses Akismet to reduce spam. Learn how your comment data is processed.