Rammstein – Reise, Reise (Limited Remastered Japanese Edition)




No Cover available

Artist: Rammstein
Year: 2004/2009
Genre: Metal
Notes: Discogs
Add. Notes: Limited Remastered Japanese Edition
Watch Songs on: YouTube
Cover incl.: Yes
Encoder: FLAC
Bitrate: ~1000 kBit/s (44.1 kHz/16 Bit/s)
Log & Cue incl.: Yes/Yes
Size: 481,2 MB
Password: “slam” (without ” “)


All Downloads/Hosters are compatible

Download 1
KatFile.com
Turbobit.net
Rapidgator.net
FileFactory.com
Download 2
KatFile.com
Turbobit.net
Rapidgator.net
FileFactory.com

Tracklist:

0 Hidden Intro
1 Reise, Reise 4:12
2 Mein Teil 4:33
3 Dalai Lama 5:39
4 Keine Lust 3:43
5 Los 4:24
6 Amerika 3:47
7 Moskau 4:17
8 Morgenstern 4:00
9 Stein Um Stein 3:53
10 Ohne Dich 4:32
11 Amour 4:51
12 Mein Teil (You Are What You Eat Edit) 4:07
13 Amerika (Digital Hardcore Mix) 3:52

EAC-Log, CUE-Sheed & NFO:

Click to open spoiler
Exact Audio Copy V0.99 prebeta 5 from 4. May 2009

EAC extraction logfile from 4. December 2010, 23:33

Rammstein / Reise, Reise

Used drive : TSSTcorpCDDVDW TS-L632H Adapter: 1 ID: 0

Read mode : Secure
Utilize accurate stream : Yes
Defeat audio cache : Yes
Make use of C2 pointers : No

Read offset correction : 6
Overread into Lead-In and Lead-Out : No
Fill up missing offset samples with silence : Yes
Delete leading and trailing silent blocks : No
Null samples used in CRC calculations : Yes
Used interface : Native Win32 interface for Win NT & 2000
Gap handling : Appended to previous track

Used output format : User Defined Encoder
Selected bitrate : 128 kBit/s
Quality : High
Add ID3 tag : No
Command line compressor : C:\Program Files\Exact Audio Copy\Flac\flac.exe
Additional command line options : -8 -V -T “ARTIST=%a” -T “TITLE=%t” -T “ALBUM=%g” -T “DATE=%y” -T “TRACKNUMBER=%n” -T “GENRE=%m” -T “COMMENT=EAC FLAC -8” %s

TOC of the extracted CD

Track | Start | Length | Start sector | End sector
———————————————————
1 | 0:34.00 | 4:11.12 | 2550 | 21386
2 | 4:45.12 | 4:32.30 | 21387 | 41816
3 | 9:17.42 | 5:38.37 | 41817 | 67203
4 | 14:56.04 | 3:42.70 | 67204 | 83923
5 | 18:38.74 | 4:25.09 | 83924 | 103807
6 | 23:04.08 | 3:46.57 | 103808 | 120814
7 | 26:50.65 | 4:16.23 | 120815 | 140037
8 | 31:07.13 | 3:59.66 | 140038 | 158028
9 | 35:07.04 | 3:56.22 | 158029 | 175750
10 | 39:03.26 | 4:32.17 | 175751 | 196167
11 | 43:35.43 | 4:54.17 | 196168 | 218234
12 | 48:29.60 | 4:06.47 | 218235 | 236731
13 | 52:36.32 | 3:49.35 | 236732 | 253941

Track 1

Filename H:\Rammstein Japan\Rammstein (Japan press) [FLAC]\2004 Reise, Reise [Japan SHM-CD]\01. Rammstein – Reise, Reise.wav

Pre-gap length 0:00:36.00

Peak level 99.9 %
Track quality 100.0 %
Test CRC 497D5308
Copy CRC 497D5308
Accurately ripped (confidence 1) [C08C68C4]
Copy OK

Track 2

Filename H:\Rammstein Japan\Rammstein (Japan press) [FLAC]\2004 Reise, Reise [Japan SHM-CD]\02. Rammstein – Mein Teil.wav

Peak level 99.9 %
Track quality 100.0 %
Test CRC 759189E5
Copy CRC 759189E5
Accurately ripped (confidence 1) [397A821A]
Copy OK

Track 3

Filename H:\Rammstein Japan\Rammstein (Japan press) [FLAC]\2004 Reise, Reise [Japan SHM-CD]\03. Rammstein – Dalai Lama.wav

Peak level 99.9 %
Track quality 100.0 %
Test CRC 42F281D7
Copy CRC 42F281D7
Accurately ripped (confidence 1) [0E0FB935]
Copy OK

Track 4

Filename H:\Rammstein Japan\Rammstein (Japan press) [FLAC]\2004 Reise, Reise [Japan SHM-CD]\04. Rammstein – Keine Lust.wav

Peak level 99.9 %
Track quality 100.0 %
Test CRC 7241591C
Copy CRC 7241591C
Accurately ripped (confidence 1) [CA831470]
Copy OK

Track 5

Filename H:\Rammstein Japan\Rammstein (Japan press) [FLAC]\2004 Reise, Reise [Japan SHM-CD]\05. Rammstein – Los.wav

Peak level 99.9 %
Track quality 100.0 %
Test CRC 46CCBDE3
Copy CRC 46CCBDE3
Accurately ripped (confidence 1) [373DCF6D]
Copy OK

Track 6

Filename H:\Rammstein Japan\Rammstein (Japan press) [FLAC]\2004 Reise, Reise [Japan SHM-CD]\06. Rammstein – Amerika.wav

Pre-gap length 0:00:01.45

Peak level 99.9 %
Track quality 100.0 %
Test CRC 454BF048
Copy CRC 454BF048
Accurately ripped (confidence 1) [8C939BEC]
Copy OK

Track 7

Filename H:\Rammstein Japan\Rammstein (Japan press) [FLAC]\2004 Reise, Reise [Japan SHM-CD]\07. Rammstein – Moskau.wav

Peak level 99.9 %
Track quality 100.0 %
Test CRC E6A5078F
Copy CRC E6A5078F
Accurately ripped (confidence 1) [74E4B929]
Copy OK

Track 8

Filename H:\Rammstein Japan\Rammstein (Japan press) [FLAC]\2004 Reise, Reise [Japan SHM-CD]\08. Rammstein – Morgenstern.wav

Peak level 99.9 %
Track quality 100.0 %
Test CRC B739C79D
Copy CRC B739C79D
Accurately ripped (confidence 1) [D4A0F07A]
Copy OK

Track 9

Filename H:\Rammstein Japan\Rammstein (Japan press) [FLAC]\2004 Reise, Reise [Japan SHM-CD]\09. Rammstein – Stein um Stein.wav

Peak level 99.9 %
Track quality 100.0 %
Test CRC 56E74DEC
Copy CRC 56E74DEC
Accurately ripped (confidence 1) [B36B414E]
Copy OK

Track 10

Filename H:\Rammstein Japan\Rammstein (Japan press) [FLAC]\2004 Reise, Reise [Japan SHM-CD]\10. Rammstein – Ohne Dich.wav

Pre-gap length 0:00:03.67

Peak level 99.9 %
Track quality 100.0 %
Test CRC D9A78892
Copy CRC D9A78892
Accurately ripped (confidence 1) [387FDAB0]
Copy OK

Track 11

Filename H:\Rammstein Japan\Rammstein (Japan press) [FLAC]\2004 Reise, Reise [Japan SHM-CD]\11. Rammstein – Amour.wav

Pre-gap length 0:00:01.04

Peak level 99.9 %
Track quality 100.0 %
Test CRC 2A4C9BF2
Copy CRC 2A4C9BF2
Accurately ripped (confidence 1) [D125795F]
Copy OK

Track 12

Filename H:\Rammstein Japan\Rammstein (Japan press) [FLAC]\2004 Reise, Reise [Japan SHM-CD]\12. Rammstein – Mein Teil (You Are What You Eat Edit) Remix by Pet Shop Boys.wav

Pre-gap length 0:00:03.25

Peak level 100.0 %
Track quality 100.0 %
Test CRC 5463AE9C
Copy CRC 5463AE9C
Accurately ripped (confidence 1) [B9F428ED]
Copy OK

Track 13

Filename H:\Rammstein Japan\Rammstein (Japan press) [FLAC]\2004 Reise, Reise [Japan SHM-CD]\13. Rammstein – Amerika (Digital Hardcore Mix) by Alec Empire.wav

Peak level 100.0 %
Track quality 99.9 %
Test CRC 7D189643
Copy CRC 7D189643
Accurately ripped (confidence 1) [DF5697A0]
Copy OK

All tracks accurately ripped

No errors occurred

End of status report

REM GENRE Industrial
REM DATE 2004
REM DISCID C60D170D
REM COMMENT “ExactAudioCopy v0.99pb5”
PERFORMER “Rammstein”
TITLE “Reise, Reise”
FILE “01. Rammstein – Reise, Reise.wav” WAVE
TRACK 01 AUDIO
TITLE “Reise, Reise”
PERFORMER “Rammstein”
PREGAP 00:34:00
INDEX 01 00:00:00
FILE “02. Rammstein – Mein Teil.wav” WAVE
TRACK 02 AUDIO
TITLE “Mein Teil”
PERFORMER “Rammstein”
INDEX 01 00:00:00
FILE “03. Rammstein – Dalai Lama.wav” WAVE
TRACK 03 AUDIO
TITLE “Dalai Lama”
PERFORMER “Rammstein”
INDEX 01 00:00:00
FILE “04. Rammstein – Keine Lust.wav” WAVE
TRACK 04 AUDIO
TITLE “Keine Lust”
PERFORMER “Rammstein”
INDEX 01 00:00:00
FILE “05. Rammstein – Los.wav” WAVE
TRACK 05 AUDIO
TITLE “Los”
PERFORMER “Rammstein”
INDEX 01 00:00:00
TRACK 06 AUDIO
TITLE “Amerika”
PERFORMER “Rammstein”
INDEX 00 04:23:39
FILE “06. Rammstein – Amerika.wav” WAVE
INDEX 01 00:00:00
FILE “07. Rammstein – Moskau.wav” WAVE
TRACK 07 AUDIO
TITLE “Moskau”
PERFORMER “Rammstein”
INDEX 01 00:00:00
FILE “08. Rammstein – Morgenstern.wav” WAVE
TRACK 08 AUDIO
TITLE “Morgenstern”
PERFORMER “Rammstein”
INDEX 01 00:00:00
FILE “09. Rammstein – Stein um Stein.wav” WAVE
TRACK 09 AUDIO
TITLE “Stein um Stein”
PERFORMER “Rammstein”
INDEX 01 00:00:00
TRACK 10 AUDIO
TITLE “Ohne Dich”
PERFORMER “Rammstein”
INDEX 00 03:52:30
FILE “10. Rammstein – Ohne Dich.wav” WAVE
INDEX 01 00:00:00
TRACK 11 AUDIO
TITLE “Amour”
PERFORMER “Rammstein”
INDEX 00 04:31:13
FILE “11. Rammstein – Amour.wav” WAVE
INDEX 01 00:00:00
TRACK 12 AUDIO
TITLE “Mein Teil (You Are What You Eat Edit) Remix by Pet Shop Boys”
PERFORMER “Rammstein”
INDEX 00 04:50:67
FILE “12. Rammstein – Mein Teil (You Are What You Eat Edit) Remix by Pet Shop Boys.wav” WAVE
INDEX 01 00:00:00
FILE “13. Rammstein – Amerika (Digital Hardcore Mix) by Alec Empire.wav” WAVE
TRACK 13 AUDIO
TITLE “Amerika (Digital Hardcore Mix) by Alec Empire”
PERFORMER “Rammstein”
INDEX 01 00:00:00


0

Publication author

offline 8 hours

Chaos

3
Comments: 4Publics: 3424Registration: 02-02-2019
Spread the Download

Leave a Reply

Your email address will not be published. Required fields are marked *

Enter the text from the image below
 

This site uses Akismet to reduce spam. Learn how your comment data is processed.