Rammstein – Reise, Reise (Japanese Edition)




No Cover available

Artist: Rammstein
Year: 2005
Genre: Rock
Notes: Discogs
Add. Notes: Japanese Edition
Watch Songs on: YouTube
Cover incl.: Yes
Encoder: WavPack
Bitrate: ~1000 kBit/s (44.1 kHz/16 Bit/s)
Log & Cue incl.: Yes
Size: 1105,2 MB
Password: “slam” (without ” “)


All Downloads/Hosters are compatible

Download 1
KatFile.com
Turbobit.net
FileFactory.com
Rapidgator.net
Download 2
KatFile.com
Turbobit.net
FileFactory.com
Rapidgator.net

Tracklist:

1 - Reise, Reise - 4:12
2 - Mein Teil - 4:33
3 - Dalai Lama - 5:39
4 - Keine Lust - 3:43
5 - Los - 4:24
6 - Amerika - 3:47
7 - Moskau - 4:17
8 - Morgenstern - 4:00
9 - Stein Um Stein - 3:53
10 - Ohne Dich - 4:32
11 - Amour - 4:51
Bonus-Tracks:
12 - Mein Teil (You Are What You Eat Edit) - 4:07
13 - Amerika (Digital Hardcore Mix) - 3:52

EAC-Log, CUE-Sheed & NFO:

Click to open spoiler
EAC extraction logfile from 1. October 2005, 13:06 for CD
Rammstein / Reise, Reise [Japan]

Used drive : RICOH CD-R/RW MP7200A Adapter: 1 ID: 0
Read mode : Secure with NO C2, accurate stream, disable cache
Read offset correction : 97
Overread into Lead-In and Lead-Out : No

Used output format : Internal WAV Routines
44.100 Hz; 16 Bit; Stereo

Other options :
Fill up missing offset samples with silence : Yes
Delete leading and trailing silent blocks : No
Installed external ASPI interface

Range status and errors
Selected range
Filename D:\~~§§~~$$_AUDIO_NET_SHARE_$$~~§§~~\Rammstein – Reise, Reise [Japan].wav

Peak level 100.0 %
Range quality 100.0 %
CRC 5EF53023
Copy OK

No errors occured

End of status report

REM GENRE Rock
REM DATE 2005
REM DISCID B60D180D
REM COMMENT “ExactAudioCopy v0.95b3”
PERFORMER “Rammstein”
TITLE “Reise, Reise [UICO-9006] [Japan]”
FILE “Rammstein – Reise, Reise [Japan].wv” WAVE
TRACK 01 AUDIO
TITLE “Reise, Reise”
PERFORMER “Rammstein”
ISRC DEN120405586
INDEX 01 00:00:00
TRACK 02 AUDIO
TITLE “Mein Teil”
PERFORMER “Rammstein”
ISRC DEN120405655
INDEX 01 04:11:35
TRACK 03 AUDIO
TITLE “Dalai Lama”
PERFORMER “Rammstein”
ISRC DEN120405581
INDEX 01 08:43:65
TRACK 04 AUDIO
TITLE “Keine Lust”
PERFORMER “Rammstein”
ISRC DEN120405582
INDEX 01 14:22:27
TRACK 05 AUDIO
TITLE “Los”
PERFORMER “Rammstein”
ISRC DEN120405583
INDEX 01 18:05:22
TRACK 06 AUDIO
TITLE “Amerika”
PERFORMER “Rammstein”
ISRC DEN120404987
INDEX 00 22:28:65
INDEX 01 22:30:32
TRACK 07 AUDIO
TITLE “Moskau”
PERFORMER “Rammstein”
ISRC DEN120405584
INDEX 01 26:17:15
TRACK 08 AUDIO
TITLE “Morgenstern”
PERFORMER “Rammstein”
ISRC DEN120405588
INDEX 01 30:33:37
TRACK 09 AUDIO
TITLE “Stein Um Stein”
PERFORMER “Rammstein”
ISRC DEN120405587
INDEX 01 34:33:27
TRACK 10 AUDIO
TITLE “Ohne Dich”
PERFORMER “Rammstein”
ISRC DEN120405585
INDEX 00 38:25:60
INDEX 01 38:29:50
TRACK 11 AUDIO
TITLE “Amour”
PERFORMER “Rammstein”
ISRC DEN120405580
INDEX 00 43:00:65
INDEX 01 43:01:67
TRACK 12 AUDIO
TITLE “Mein Teil (You Are What You Eat Edit)”
PERFORMER “Rammstein”
ISRC DEN120403890
INDEX 00 47:52:17
INDEX 01 47:56:10
TRACK 13 AUDIO
TITLE “Amerika (Digital Hardcore Mix)”
PERFORMER “Rammstein”
ISRC DEN120405461
INDEX 01 52:02:57


Leave a Reply

Your email address will not be published. Required fields are marked *

This site uses Akismet to reduce spam. Learn how your comment data is processed.