Rammstein – Raritäten (Remastered)




Artist: Rammstein
Year: 2015
Genre: Metal
Notes: Discogs
Add. Notes: Remastered
Cover incl.: Yes
Encoder: FLAC
Bitrate: ~5500 kBit/s (192 kHz/24 Bit/s)
Log & Cue incl.: Yes
Size: 3028,71 MB
Password: “slam” (without ” “)


All Downloads/Hosters are compatible

Download 1
Turbobit.net
Rapidgator.net
UploadByte.com
UploadEver.com
JustUpload.io
Download 2
Turbobit.net
Rapidgator.net
UploadByte.com
UploadEver.com
JustUpload.io
Download 3
Turbobit.net
Rapidgator.net
UploadByte.com
UploadEver.com
JustUpload.io

Tracklist:

A1 - Feuerräder  
A2 - Wilder Wein  
A3 - Das Modell 
A4 - Kokain 
B1 - Stripped  
B2 - Halleluja 
B3 - Mein Herz Brennt - Piano Version 
B4 - Los - Full Band Version 
C1 - Führe Mich  
C2 - Donaukinder 
C3 - Halt 
C4 - Roter Sand - Orchester Version 
D1 - Liese 
D2 - Mein Land 
D3 - Vergiss Uns Nicht  
D4 - Gib Mir Deine Auge

EAC-Log, CUE-Sheed & NFO:

Click to open spoiler
REM GENRE Industrial
REM DATE 2015
REM COMMENT UNI-0602527-29662
PERFORMER “Rammstein”
TITLE “Raritaten”
FILE “Raritaten.flac” WAVE
TRACK 01 AUDIO
TITLE “Feuerrader”
INDEX 01 00:00:00
TRACK 02 AUDIO
TITLE “Wilder Wein”
INDEX 01 04:51:16
TRACK 03 AUDIO
TITLE “Das Modell”
INDEX 01 10:34:26
TRACK 04 AUDIO
TITLE “Kokain”
INDEX 01 14:54:27
TRACK 05 AUDIO
TITLE “Stripped”
INDEX 01 18:03:37
TRACK 06 AUDIO
TITLE “Halleluja”
INDEX 01 22:30:10
TRACK 07 AUDIO
TITLE “Mein Herz brennt – Piano Version”
INDEX 01 26:17:02
TRACK 08 AUDIO
TITLE “Los – Full Band Version”
INDEX 01 30:49:08
TRACK 09 AUDIO
TITLE “Fuhre Mich”
INDEX 01 35:53:58
TRACK 10 AUDIO
TITLE “Donaukinder”
INDEX 01 40:27:66
TRACK 11 AUDIO
TITLE “Halt”
INDEX 01 46:05:14
TRACK 12 AUDIO
TITLE “Roter Sand – Orchester Version”
INDEX 01 50:26:03
TRACK 13 AUDIO
TITLE “Liese”
INDEX 01 54:32:58
TRACK 14 AUDIO
TITLE “Mein Land”
INDEX 01 58:27:52
TRACK 15 AUDIO
TITLE “Vergiss Uns Nicht”
INDEX 01 62:22:46
TRACK 16 AUDIO
TITLE “Gib Mir Deine Augen”
INDEX 01 66:34:00

Leave a Reply

Your email address will not be published. Required fields are marked *

Enter the text from the image below
 

This site uses Akismet to reduce spam. Learn how your comment data is processed.