Rammstein – Raritäten (Chinese Edition)




No Cover available


Artist: Rammstein
Year: 2019
Genre: Metal
Notes: Discogs
Add. Notes: Chinese Edition
Watch Songs on: YouTube
Cover incl.: No
Encoder: FLAC
Bitrate: ~800 kBit/s (44.1 kHz/16 Bit/s)
Log & Cue incl.: Yes/Yes
Size: 524,3 MB
Password: “slam” (without ” “)


All Downloads/Hosters are compatible

Download 1
KatFile.com
Turbobit.net
Rapidgator.net
FileFactory.com
Download 2
KatFile.com
Turbobit.net
Rapidgator.net
FileFactory.com

Tracklist:

01. Feuerrade
02. Wilder Wein
03. Das Modell
04. Kokain
05. Stripped
06. Halleluja
07. Mein Herz Brennt (Piano Version)
08. Los (Full Band Version)
09. Fuhre Mich
10. Donaukinder
11. Halt
12. Roter Sand (Orchester Version)
13. Liese
14. Mein Land
15. Vergiss Uns Nicht
16. Gib Mir Deine Augen
17. Rammstein (Eskimos & Egypt Remix)
18. Mann Gegen Mann (Musensohn Remix)

EAC-Log, CUE-Sheed & NFO:

Click to open spoiler
Exact Audio Copy V1.3 from 2. September 2016

EAC extraction logfile from 5. July 2019, 17:47

Rammstein / Raritaten (Chinese Edition)

Used drive : TSSTcorpCDDVDW SE-S084F Adapter: 1 ID: 1

Read mode : Secure
Utilize accurate stream : Yes
Defeat audio cache : Yes
Make use of C2 pointers : No

Read offset correction : 6
Overread into Lead-In and Lead-Out : No
Fill up missing offset samples with silence : Yes
Delete leading and trailing silent blocks : No
Null samples used in CRC calculations : Yes
Used interface : Native Win32 interface for Win NT & 2000
Gap handling : Appended to previous track

Used output format : User Defined Encoder
Selected bitrate : 128 kBit/s
Quality : High
Add ID3 tag : No
Command line compressor : C:\Program Files (x86)\Exact Audio Copy\Flac\flac.exe
Additional command line options : -V -8 -T “Genre=%genre%” -T “Artist=%artist%” -T “Title=%title%” -T “Album=%albumtitle%” -T “Date=%year%” -T “Tracknumber=%tracknr%” -T “Comment=%comment%” %source%

TOC of the extracted CD

Track | Start | Length | Start sector | End sector
———————————————————
1 | 0:00.00 | 4:49.23 | 0 | 21697
2 | 4:49.23 | 5:40.00 | 21698 | 47197
3 | 10:29.23 | 4:15.23 | 47198 | 66345
4 | 14:44.46 | 3:07.17 | 66346 | 80387
5 | 17:51.63 | 4:25.57 | 80388 | 100319
6 | 22:17.45 | 3:43.39 | 100320 | 117083
7 | 26:01.09 | 4:28.74 | 117084 | 137257
8 | 30:30.08 | 5:01.31 | 137258 | 159863
9 | 35:31.39 | 4:32.00 | 159864 | 180263
10 | 40:03.39 | 5:35.09 | 180264 | 205397
11 | 45:38.48 | 4:16.38 | 205398 | 224635
12 | 49:55.11 | 4:04.36 | 224636 | 242971
13 | 53:59.47 | 3:52.58 | 242972 | 260429
14 | 57:52.30 | 3:51.03 | 260430 | 277757
15 | 61:43.33 | 4:08.00 | 277758 | 296357
16 | 65:51.33 | 3:43.09 | 296358 | 313091
17 | 69:34.42 | 6:33.15 | 313092 | 342581
18 | 76:07.57 | 3:12.16 | 342582 | 356997

Track 1

Filename D:\Flac\Новая папка\01 Feuerräder.wav

Pre-gap length 0:00:02.00

Peak level 100.0 %
Extraction speed 1.3 X
Track quality 100.0 %
Test CRC A48F36F5
Copy CRC A48F36F5
Copy OK

Track 2

Filename D:\Flac\Новая папка\02 Wilder Wein.wav

Peak level 99.9 %
Extraction speed 1.5 X
Track quality 100.0 %
Test CRC 44F0B1D4
Copy CRC 44F0B1D4
Copy OK

Track 3

Filename D:\Flac\Новая папка\03 Das Modell.wav

Peak level 100.0 %
Extraction speed 1.3 X
Track quality 99.9 %
Test CRC 28253E46
Copy CRC 28253E46
Copy OK

Track 4

Filename D:\Flac\Новая папка\04 Kokain.wav

Peak level 100.0 %
Extraction speed 1.3 X
Track quality 99.9 %
Test CRC 746AF078
Copy CRC 746AF078
Copy OK

Track 5

Filename D:\Flac\Новая папка\05 Stripped.wav

Peak level 100.0 %
Extraction speed 1.7 X
Track quality 100.0 %
Test CRC 4D2D5A11
Copy CRC 4D2D5A11
Copy OK

Track 6

Filename D:\Flac\Новая папка\06 Halleluja.wav

Peak level 100.0 %
Extraction speed 1.7 X
Track quality 100.0 %
Test CRC 97BD8145
Copy CRC 97BD8145
Copy OK

Track 7

Filename D:\Flac\Новая папка\07 Mein Herz Brennt (Piano Version).wav

Peak level 100.0 %
Extraction speed 1.9 X
Track quality 100.0 %
Test CRC 89120093
Copy CRC 89120093
Copy OK

Track 8

Filename D:\Flac\Новая папка\08 Los (Full Band Version).wav

Peak level 100.0 %
Extraction speed 1.8 X
Track quality 99.9 %
Test CRC 082DC6E6
Copy CRC 082DC6E6
Copy OK

Track 9

Filename D:\Flac\Новая папка\09 Führe Mich.wav

Peak level 100.0 %
Extraction speed 2.1 X
Track quality 100.0 %
Test CRC 0D3A0F70
Copy CRC 0D3A0F70
Copy OK

Track 10

Filename D:\Flac\Новая папка\10 Donaukinder.wav

Peak level 100.0 %
Extraction speed 2.2 X
Track quality 100.0 %
Test CRC F7D1E874
Copy CRC F7D1E874
Copy OK

Track 11

Filename D:\Flac\Новая папка\11 Halt.wav

Peak level 100.0 %
Extraction speed 2.2 X
Track quality 100.0 %
Test CRC 599E9F94
Copy CRC 599E9F94
Copy OK

Track 12

Filename D:\Flac\Новая папка\12 Roter Sand (Orchester Version).wav

Peak level 99.4 %
Extraction speed 2.2 X
Track quality 100.0 %
Test CRC 65642C80
Copy CRC 65642C80
Copy OK

Track 13

Filename D:\Flac\Новая папка\13 Liese.wav

Peak level 99.4 %
Extraction speed 2.2 X
Track quality 100.0 %
Test CRC 3BF8F5F2
Copy CRC 3BF8F5F2
Copy OK

Track 14

Filename D:\Flac\Новая папка\14 Mein Land.wav

Peak level 100.0 %
Extraction speed 2.0 X
Track quality 99.9 %
Test CRC 65BD2341
Copy CRC 65BD2341
Copy OK

Track 15

Filename D:\Flac\Новая папка\15 Vergiss Uns Nicht.wav

Peak level 100.0 %
Extraction speed 2.1 X
Track quality 99.9 %
Test CRC 89358D38
Copy CRC 89358D38
Copy OK

Track 16

Filename D:\Flac\Новая папка\16 Gib Mir Deine Augen.wav

Peak level 100.0 %
Extraction speed 2.1 X
Track quality 99.9 %
Test CRC 97135814
Copy CRC 97135814
Copy OK

Track 17

Filename D:\Flac\Новая папка\17 Rammstein (Eskimos & Egypt Remix).wav

Peak level 100.0 %
Extraction speed 2.7 X
Track quality 100.0 %
Test CRC 8997CDE0
Copy CRC 8997CDE0
Copy OK

Track 18

Filename D:\Flac\Новая папка\18 Mann Gegen Mann (Musensohn Remix).wav

Peak level 99.0 %
Extraction speed 2.1 X
Track quality 99.9 %
Test CRC 7CEB1F48
Copy CRC 7CEB1F48
Copy OK

No errors occurred

End of status report

==== Log checksum ABC828606CB065A637F9CDE2F9124229F1AEA4344C775ADC86609E66FA0229B0 ====

REM GENRE “Industrial Metal”
REM DATE 2019
REM DISCID 0C129712
REM COMMENT “ExactAudioCopy v1.3”
PERFORMER “Rammstein”
TITLE “Raritaten (Chinese Edition)”
REM COMPOSER “”
FILE “01 Feuerrader.wav” WAVE
TRACK 01 AUDIO
TITLE “Feuerrader”
PERFORMER “Rammstein”
REM COMPOSER “”
INDEX 01 00:00:00
FILE “02 Wilder Wein.wav” WAVE
TRACK 02 AUDIO
TITLE “Wilder Wein”
PERFORMER “Rammstein”
REM COMPOSER “”
INDEX 01 00:00:00
FILE “03 Das Modell.wav” WAVE
TRACK 03 AUDIO
TITLE “Das Modell”
PERFORMER “Rammstein”
REM COMPOSER “”
INDEX 01 00:00:00
FILE “04 Kokain.wav” WAVE
TRACK 04 AUDIO
TITLE “Kokain”
PERFORMER “Rammstein”
REM COMPOSER “”
INDEX 01 00:00:00
FILE “05 Stripped.wav” WAVE
TRACK 05 AUDIO
TITLE “Stripped”
PERFORMER “Rammstein”
REM COMPOSER “”
INDEX 01 00:00:00
FILE “06 Halleluja.wav” WAVE
TRACK 06 AUDIO
TITLE “Halleluja”
PERFORMER “Rammstein”
REM COMPOSER “”
INDEX 01 00:00:00
FILE “07 Mein Herz Brennt (Piano Version).wav” WAVE
TRACK 07 AUDIO
TITLE “Mein Herz Brennt (Piano Version)”
PERFORMER “Rammstein”
REM COMPOSER “”
INDEX 01 00:00:00
FILE “08 Los (Full Band Version).wav” WAVE
TRACK 08 AUDIO
TITLE “Los (Full Band Version)”
PERFORMER “Rammstein”
REM COMPOSER “”
INDEX 01 00:00:00
FILE “09 Fuhre Mich.wav” WAVE
TRACK 09 AUDIO
TITLE “Fuhre Mich”
PERFORMER “Rammstein”
REM COMPOSER “”
INDEX 01 00:00:00
FILE “10 Donaukinder.wav” WAVE
TRACK 10 AUDIO
TITLE “Donaukinder”
PERFORMER “Rammstein”
REM COMPOSER “”
INDEX 01 00:00:00
FILE “11 Halt.wav” WAVE
TRACK 11 AUDIO
TITLE “Halt”
PERFORMER “Rammstein”
REM COMPOSER “”
INDEX 01 00:00:00
FILE “12 Roter Sand (Orchester Version).wav” WAVE
TRACK 12 AUDIO
TITLE “Roter Sand (Orchester Version)”
PERFORMER “Rammstein”
REM COMPOSER “”
INDEX 01 00:00:00
FILE “13 Liese.wav” WAVE
TRACK 13 AUDIO
TITLE “Liese”
PERFORMER “Rammstein”
REM COMPOSER “”
INDEX 01 00:00:00
FILE “14 Mein Land.wav” WAVE
TRACK 14 AUDIO
TITLE “Mein Land”
PERFORMER “Rammstein”
REM COMPOSER “”
INDEX 01 00:00:00
FILE “15 Vergiss Uns Nicht.wav” WAVE
TRACK 15 AUDIO
TITLE “Vergiss Uns Nicht”
PERFORMER “Rammstein”
REM COMPOSER “”
INDEX 01 00:00:00
FILE “16 Gib Mir Deine Augen.wav” WAVE
TRACK 16 AUDIO
TITLE “Gib Mir Deine Augen”
PERFORMER “Rammstein”
REM COMPOSER “”
INDEX 01 00:00:00
FILE “17 Rammstein (Eskimos & Egypt Remix).wav” WAVE
TRACK 17 AUDIO
TITLE “Rammstein (Eskimos & Egypt Remix)”
PERFORMER “Rammstein”
REM COMPOSER “”
INDEX 01 00:00:00
FILE “18 Mann Gegen Mann (Musensohn Remix).wav” WAVE
TRACK 18 AUDIO
TITLE “Mann Gegen Mann (Musensohn Remix)”
PERFORMER “Rammstein”
REM COMPOSER “”
INDEX 01 00:00:00


Leave a Reply

Your email address will not be published. Required fields are marked *

Enter the text from the image below
 

This site uses Akismet to reduce spam. Learn how your comment data is processed.