Rammstein – Rammstein (Deluxe Edition)




No Cover available

Artist: Rammstein
Year: 2019
Genre: Rock
Notes: Discogs
Add. Notes: Deluxe Edition
Watch Songs on: YouTube
Cover incl.: Yes
Encoder: FLAC
Bitrate: ~1000 kBit/s (44.1 kHz/16 Bit/s)
Log & Cue incl.: Yes/Yes
Size: 564,4 MB
Password: “slam” (without ” “)


All Downloads/Hosters are compatible

Download 1
KatFile.com
Turbobit.net
Rapidgator.net
FileFactory.com
Download 2
KatFile.com
Turbobit.net
Rapidgator.net
FileFactory.com

Tracklist:

1 Deutschland 5:23
2 Radio 4:37
3 Zeig Dich 4:16
4 Ausländer 3:52
5 Sex 3:57
6 Puppe 4:34
7 Was Ich Liebe 4:29
8 Diamant 2:34
9 Weit Weg 4:21
10 Tattoo 4:12
11 Hallomann 4:14

Bonus Tracks
12 Deutschland (Remix By Richard Z. Kruspe) 5:46
13 Radio (Remix By twocolors) 5:00
14 Mein Herz Brennt (Boyz Noize Remix) 5:03
15 Gib Mir Deine Augen 3:46
16 Mein Land 3:53
17 Vergiss Uns Nicht 4:11

EAC-Log, CUE-Sheed & NFO:

Click to open spoiler
Exact Audio Copy V1.3 from 2. September 2016

Отчёт EAC об извлечении, выполненном 28. июля 2019, 14:43

Rammstein / Rammstein

Дисковод: PIONEER DVD-RW DVR-109 Adapter: 3 ID: 0

Режим чтения : Достоверность
Использование точного потока : Да
Отключение кэша аудио : Да
Использование указателей C2 : Нет

Коррекция смещения при чтении : 48
Способность читать области Lead-in и Lead-out : Нет
Заполнение пропущенных сэмплов тишиной : Да
Удаление блоков с тишиной в начале и конце : Нет
При вычислениях CRC использовались нулевые сэмплы : Да
Интерфейс : Установленный внешний ASPI-интерфейс

Выходной формат : Пользовательский кодировщик
Выбранный битрейт : 128 kBit/s
Качество : Высокий
Добавление ID3-тега : Нет
Утилита сжатия : C:\Program Files\Exact Audio Copy\FLAC\FLAC.EXE
Дополнительные параметры : -V -8 -T “Genre=%genre%” -T “Artist=%artist%” -T “Title=%title%” -T “Album=%albumtitle%” -T “Date=%year%” -T “Tracknumber=%tracknr%” -T “Comment=%comment%” %source%

TOC извлечённого CD

Трек | Старт | Длительность | Начальный сектор | Конечный сектор
———————————————————————
1 | 0:00.00 | 5:23.02 | 0 | 24226
2 | 5:23.02 | 4:37.30 | 24227 | 45031
3 | 10:00.32 | 4:15.63 | 45032 | 64219
4 | 14:16.20 | 3:51.45 | 64220 | 81589
5 | 18:07.65 | 3:56.40 | 81590 | 99329
6 | 22:04.30 | 4:33.53 | 99330 | 119857
7 | 26:38.08 | 4:29.03 | 119858 | 140035
8 | 31:07.11 | 2:34.23 | 140036 | 151608
9 | 33:41.34 | 4:20.68 | 151609 | 171176
10 | 38:02.27 | 4:11.50 | 171177 | 190051
11 | 42:14.02 | 4:13.48 | 190052 | 209074
12 | 46:27.50 | 5:46.13 | 209075 | 235037
13 | 52:13.63 | 5:00.11 | 235038 | 257548
14 | 57:13.74 | 5:02.64 | 257549 | 280262
15 | 62:16.63 | 3:45.73 | 280263 | 297210
16 | 66:02.61 | 3:52.50 | 297211 | 314660
17 | 69:55.36 | 4:10.42 | 314661 | 333452

Характеристики диапазона извлечения и сообщения об ошибках

Выбранный диапазон

Имя файла I:\MOI_RAZDACI\Rammstein – Rammstein (2019)\Rammstein – Rammstein (2019)\Rammstein – Rammstein.wav

Пиковый уровень 100.0 %
Скорость извлечения 2.0 X
Качество диапазона 100.0 %
CRC теста D5998F66
CRC копии D5998F66
Копирование… OK

Ошибок не произошло

AccurateRip: сводка

Трек 1 отсутствует в базе данных
Трек 2 отсутствует в базе данных
Трек 3 отсутствует в базе данных
Трек 4 отсутствует в базе данных
Трек 5 отсутствует в базе данных
Трек 6 отсутствует в базе данных
Трек 7 отсутствует в базе данных
Трек 8 отсутствует в базе данных
Трек 9 отсутствует в базе данных
Трек 10 отсутствует в базе данных
Трек 11 отсутствует в базе данных
Трек 12 отсутствует в базе данных
Трек 13 отсутствует в базе данных
Трек 14 отсутствует в базе данных
Трек 15 отсутствует в базе данных
Трек 16 отсутствует в базе данных
Трек 17 отсутствует в базе данных

Ни одного трека нет в базе AccurateRip

Конец отчёта

—- CUETools DB Plugin V2.1.6

[CTDB TOCID: lcO8lYLlJYKaJO3ArZmweeNACt4-] found
Submit result: lcO8lYLlJYKaJO3ArZmweeNACt4- has been confirmed
Track | CTDB Status
1 | (7/7) Accurately ripped
2 | (7/7) Accurately ripped
3 | (7/7) Accurately ripped
4 | (7/7) Accurately ripped
5 | (7/7) Accurately ripped
6 | (7/7) Accurately ripped
7 | (7/7) Accurately ripped
8 | (7/7) Accurately ripped
9 | (7/7) Accurately ripped
10 | (7/7) Accurately ripped
11 | (7/7) Accurately ripped
12 | (7/7) Accurately ripped
13 | (7/7) Accurately ripped
14 | (7/7) Accurately ripped
15 | (7/7) Accurately ripped
16 | (7/7) Accurately ripped
17 | (7/7) Accurately ripped

==== Контрольная сумма отчёта F9FA0AE3560DD54DFA5C19D8B108B571A217EEFD0408B56C16846911C01322C0 ====

REM GENRE Metal
REM DATE 2019
REM DISCID 03115E11
REM COMMENT “ExactAudioCopy v1.3”
PERFORMER “Rammstein”
TITLE “Rammstein”
REM COMPOSER “”
FILE “Rammstein – Rammstein.flac” WAVE
TRACK 01 AUDIO
TITLE “DEUTSCHLAND”
PERFORMER “Rammstein”
REM COMPOSER “”
INDEX 01 00:00:00
TRACK 02 AUDIO
TITLE “RADIO”
PERFORMER “Rammstein”
REM COMPOSER “”
INDEX 01 05:23:02
TRACK 03 AUDIO
TITLE “ZEIG DICH”
PERFORMER “Rammstein”
REM COMPOSER “”
INDEX 01 10:00:32
TRACK 04 AUDIO
TITLE “AUSLANDER”
PERFORMER “Rammstein”
REM COMPOSER “”
INDEX 01 14:16:20
TRACK 05 AUDIO
TITLE “SEX”
PERFORMER “Rammstein”
REM COMPOSER “”
INDEX 01 18:07:65
TRACK 06 AUDIO
TITLE “PUPPE”
PERFORMER “Rammstein”
REM COMPOSER “”
INDEX 01 22:04:30
TRACK 07 AUDIO
TITLE “WAS ICH LIEBE”
PERFORMER “Rammstein”
REM COMPOSER “”
INDEX 01 26:38:08
TRACK 08 AUDIO
TITLE “DIAMANT”
PERFORMER “Rammstein”
REM COMPOSER “”
INDEX 01 31:07:11
TRACK 09 AUDIO
TITLE “WEIT WEG”
PERFORMER “Rammstein”
REM COMPOSER “”
INDEX 01 33:41:34
TRACK 10 AUDIO
TITLE “TATTOO”
PERFORMER “Rammstein”
REM COMPOSER “”
INDEX 01 38:02:27
TRACK 11 AUDIO
TITLE “HALLOMANN”
PERFORMER “Rammstein”
REM COMPOSER “”
INDEX 01 42:14:02
TRACK 12 AUDIO
TITLE “DEUTSCHLAND (remix by Richard Z. Kruspe)”
PERFORMER “Rammstein”
REM COMPOSER “”
INDEX 01 46:27:50
TRACK 13 AUDIO
TITLE “RADIO (remix by twocolors)”
PERFORMER “Rammstein”
REM COMPOSER “”
INDEX 01 52:13:63
TRACK 14 AUDIO
TITLE “Mein Herz brennt (Boyz Noize remix)”
PERFORMER “Rammstein”
REM COMPOSER “”
INDEX 01 57:13:74
TRACK 15 AUDIO
TITLE “Gib mir deine Augen”
PERFORMER “Rammstein”
REM COMPOSER “”
INDEX 01 62:16:63
TRACK 16 AUDIO
TITLE “Mein Land”
PERFORMER “Rammstein”
REM COMPOSER “”
INDEX 01 66:02:61
TRACK 17 AUDIO
TITLE “Vergiss uns nicht”
PERFORMER “Rammstein”
REM COMPOSER “”
INDEX 01 69:55:36


Leave a Reply

Your email address will not be published. Required fields are marked *

Enter the text from the image below
 

This site uses Akismet to reduce spam. Learn how your comment data is processed.