Rammstein – Rammstein (Chinese Edition)




No Cover available

Artist: Rammstein
Year: 2019
Genre: Metal
Notes: Discogs
Add. Notes: Chinese Edition
Watch Songs on: YouTube
Cover incl.: Yes
Encoder: FLAC
Bitrate: ~900 kBit/s (44.1 kHz/16 Bit/s)
Log & Cue incl.: Yes/Yes
Size: 481,7 MB
Password: “slam” (without ” “)


All Downloads/Hosters are compatible

Download 1
KatFile.com
Turbobit.net
Rapidgator.net
FileFactory.com
Download 2
KatFile.com
Turbobit.net
Rapidgator.net
FileFactory.com

Tracklist:

01. Intro[0:21]
02. Deutschland[5:22]
03. Radio[4:56]
04. _Zeig Dich[0:15]
05. Zeig Dich[4:16]
06. _Auslander[0:14]
07. Auslander[3:52]
08. _Sex[0:26]
09. Sex[3:57]
10. Puppe[4:34]
11. _Puppe[0:10]
12. _Was Ich Liebe[0:14]
13. Was Ich Liebe[4:29]
14. Diamant[2:33]
15. _Diamant[0:21]
16. Weit Weg[4:19]
17. _Weit Weg[0:24]
18. _Tattoo[0:18]
19. Tattoo[4:12]
20. _Hallomann[0:12]
21. Hallomann[4:12]
22. Deutschland (RMX By Richard Z. KRUSPE)[5:46]
23. _Radio[0:19]
24. Radio (RMX By twocolors)[5:00]
25. _Deutschland [0:21]
26. Deutschland (Video Version)[9:23]

EAC-Log, CUE-Sheed & NFO:

Click to open spoiler
Exact Audio Copy V1.3 from 2. September 2016

EAC extraction logfile from 8. June 2019, 13:30

Rammstein / RAMMSTEIN (Chinese Edition)

Used drive : PIONEER BD-RW BDR-209D Adapter: 1 ID: 0

Read mode : Secure
Utilize accurate stream : Yes
Defeat audio cache : Yes
Make use of C2 pointers : No

Read offset correction : 667
Overread into Lead-In and Lead-Out : No
Fill up missing offset samples with silence : Yes
Delete leading and trailing silent blocks : No
Null samples used in CRC calculations : Yes
Used interface : Native Win32 interface for Win NT & 2000
Gap handling : Appended to previous track

Used output format : User Defined Encoder
Selected bitrate : 128 kBit/s
Quality : High
Add ID3 tag : No
Command line compressor : C:\Program Files (x86)\Exact Audio Copy\Flac\flac.exe
Additional command line options : -V -8 -T “Genre=%genre%” -T “Artist=%artist%” -T “Title=%title%” -T “Album=%albumtitle%” -T “Date=%year%” -T “Tracknumber=%tracknr%” -T “Comment=%comment%” %source%

TOC of the extracted CD

Track | Start | Length | Start sector | End sector
———————————————————
1 | 0:00.00 | 0:21.25 | 0 | 1599
2 | 0:21.25 | 5:22.24 | 1600 | 25773
3 | 5:43.49 | 4:55.51 | 25774 | 47949
4 | 10:39.25 | 0:15.19 | 47950 | 49093
5 | 10:54.44 | 4:15.63 | 49094 | 68281
6 | 15:10.32 | 0:14.22 | 68282 | 69353
7 | 15:24.54 | 3:51.45 | 69354 | 86723
8 | 19:16.24 | 0:26.26 | 86724 | 88699
9 | 19:42.50 | 3:56.38 | 88700 | 106437
10 | 23:39.13 | 4:33.51 | 106438 | 126963
11 | 28:12.64 | 0:09.55 | 126964 | 127693
12 | 28:22.44 | 0:13.45 | 127694 | 128713
13 | 28:36.14 | 4:29.03 | 128714 | 148891
14 | 33:05.17 | 2:33.27 | 148892 | 160393
15 | 35:38.44 | 0:20.66 | 160394 | 161959
16 | 35:59.35 | 4:19.15 | 161960 | 181399
17 | 40:18.50 | 0:23.67 | 181400 | 183191
18 | 40:42.42 | 0:17.51 | 183192 | 184517
19 | 41:00.18 | 4:11.49 | 184518 | 203391
20 | 45:11.67 | 0:12.20 | 203392 | 204311
21 | 45:24.12 | 4:11.47 | 204312 | 223183
22 | 49:35.59 | 5:46.18 | 223184 | 249151
23 | 55:22.02 | 0:19.15 | 249152 | 250591
24 | 55:41.17 | 5:00.10 | 250592 | 273101
25 | 60:41.27 | 0:21.35 | 273102 | 274711
26 | 61:02.62 | 9:23.01 | 274712 | 316937

Track 1

Filename D:\Flac\Новая папка\01 Intro.wav

Pre-gap length 0:00:02.00

Peak level 73.7 %
Extraction speed 2.0 X
Track quality 100.0 %
Test CRC E3A2CD1C
Copy CRC E3A2CD1C
Copy OK

Track 2

Filename D:\Flac\Новая папка\02 DEUTSCHLAND.wav

Peak level 98.8 %
Extraction speed 5.1 X
Track quality 100.0 %
Test CRC FA3C1699
Copy CRC FA3C1699
Copy OK

Track 3

Filename D:\Flac\Новая папка\03 RADIO.wav

Peak level 98.8 %
Extraction speed 5.6 X
Track quality 100.0 %
Test CRC 94F31460
Copy CRC 94F31460
Copy OK

Track 4

Filename D:\Flac\Новая папка\04 「ZEIG DICH」.wav

Peak level 65.5 %
Extraction speed 1.1 X
Track quality 99.2 %
Test CRC AC4F07D9
Copy CRC AC4F07D9
Copy OK

Track 5

Filename D:\Flac\Новая папка\05 ZEIG DICH.wav

Peak level 98.8 %
Extraction speed 5.9 X
Track quality 100.0 %
Test CRC 6CE508DD
Copy CRC 6CE508DD
Copy OK

Track 6

Filename D:\Flac\Новая папка\06 「AUSLÄNDER」.wav

Peak level 69.3 %
Extraction speed 1.8 X
Track quality 100.0 %
Test CRC E07E56D5
Copy CRC E07E56D5
Copy OK

Track 7

Filename D:\Flac\Новая папка\07 AUSLÄNDER.wav

Peak level 98.8 %
Extraction speed 6.0 X
Track quality 100.0 %
Test CRC 24AB26AE
Copy CRC 24AB26AE
Copy OK

Track 8

Filename D:\Flac\Новая папка\08 「SEX」.wav

Peak level 70.0 %
Extraction speed 2.8 X
Track quality 100.0 %
Test CRC AEA9E788
Copy CRC AEA9E788
Copy OK

Track 9

Filename D:\Flac\Новая папка\09 SEX.wav

Peak level 98.8 %
Extraction speed 6.0 X
Track quality 100.0 %
Test CRC 99F2B7B7
Copy CRC 99F2B7B7
Copy OK

Track 10

Filename D:\Flac\Новая папка\10 PUPPE.wav

Peak level 98.8 %
Extraction speed 6.8 X
Track quality 100.0 %
Test CRC D056E5FC
Copy CRC D056E5FC
Copy OK

Track 11

Filename D:\Flac\Новая папка\11 「PUPPE」.wav

Peak level 78.1 %
Extraction speed 1.5 X
Track quality 100.0 %
Test CRC FBFC85D7
Copy CRC FBFC85D7
Copy OK

Track 12

Filename D:\Flac\Новая папка\12 「WAS ICH LIEBE」.wav

Peak level 65.5 %
Extraction speed 1.2 X
Track quality 99.2 %
Test CRC C4A797ED
Copy CRC C4A797ED
Copy OK

Track 13

Filename D:\Flac\Новая папка\13 WAS ICH LIEBE.wav

Peak level 98.8 %
Extraction speed 6.9 X
Track quality 100.0 %
Test CRC E3524BB1
Copy CRC E3524BB1
Copy OK

Track 14

Filename D:\Flac\Новая папка\14 DIAMANT.wav

Peak level 98.8 %
Extraction speed 5.7 X
Track quality 99.9 %
Test CRC FE33496A
Copy CRC FE33496A
Copy OK

Track 15

Filename D:\Flac\Новая папка\15 「DIAMANT」.wav

Peak level 60.1 %
Extraction speed 1.8 X
Track quality 99.4 %
Test CRC 52637359
Copy CRC 52637359
Copy OK

Track 16

Filename D:\Flac\Новая папка\16 WEIT WEG.wav

Peak level 98.8 %
Extraction speed 7.5 X
Track quality 100.0 %
Test CRC 6B7335FE
Copy CRC 6B7335FE
Copy OK

Track 17

Filename D:\Flac\Новая папка\17 「WEIT WEG」.wav

Peak level 61.6 %
Extraction speed 2.0 X
Track quality 99.5 %
Test CRC 0FE152D4
Copy CRC 0FE152D4
Copy OK

Track 18

Filename D:\Flac\Новая папка\18 「TATTOO」.wav

Peak level 66.2 %
Extraction speed 2.7 X
Track quality 100.0 %
Test CRC C80B8AAC
Copy CRC C80B8AAC
Copy OK

Track 19

Filename D:\Flac\Новая папка\19 TATTOO.wav

Peak level 98.8 %
Extraction speed 6.6 X
Track quality 99.9 %
Test CRC 12F543FF
Copy CRC 12F543FF
Copy OK

Track 20

Filename D:\Flac\Новая папка\20 「HALLOMANN」.wav

Peak level 70.0 %
Extraction speed 1.2 X
Track quality 99.1 %
Test CRC 04EAC2E8
Copy CRC 04EAC2E8
Copy OK

Track 21

Filename D:\Flac\Новая папка\21 HALLOMANN.wav

Peak level 98.8 %
Extraction speed 7.0 X
Track quality 99.9 %
Test CRC 3F508AFF
Copy CRC 3F508AFF
Copy OK

Track 22

Filename D:\Flac\Новая папка\22 DEUTSCHLAND (RMX By Richard Z. KRUSPE).wav

Peak level 98.8 %
Extraction speed 7.7 X
Track quality 99.9 %
Test CRC 5AF0AFB7
Copy CRC 5AF0AFB7
Copy OK

Track 23

Filename D:\Flac\Новая папка\23 「RADIO」.wav

Peak level 70.0 %
Extraction speed 3.0 X
Track quality 100.0 %
Test CRC 878009E7
Copy CRC 878009E7
Copy OK

Track 24

Filename D:\Flac\Новая папка\24 RADIO (RMX By twocolors).wav

Peak level 98.8 %
Extraction speed 7.5 X
Track quality 99.9 %
Test CRC 2B2279DC
Copy CRC 2B2279DC
Copy OK

Track 25

Filename D:\Flac\Новая папка\25 「DEUTSCHLAND」.wav

Peak level 88.3 %
Extraction speed 3.5 X
Track quality 100.0 %
Test CRC 790AFC84
Copy CRC 790AFC84
Copy OK

Track 26

Filename D:\Flac\Новая папка\26 DEUTSCHLAND (Video Version).wav

Peak level 98.8 %
Extraction speed 8.5 X
Track quality 100.0 %
Test CRC EF1F4727
Copy CRC EF1F4727
Copy OK

No errors occurred

End of status report

==== Log checksum 93B942D58AFA8C11D48A5C37906636E2CE2C5303E6A3399C96C19357F232366C ====

REM GENRE “Industrial Metal”
REM DATE 2019
REM DISCID 6410811A
REM COMMENT “ExactAudioCopy v1.3”
PERFORMER “Rammstein”
TITLE “RAMMSTEIN (Chinese Edition)”
REM COMPOSER “”
FILE “01 Intro.wav” WAVE
TRACK 01 AUDIO
TITLE ” Intro”
PERFORMER “Rammstein”
REM COMPOSER “”
INDEX 01 00:00:00
FILE “02 DEUTSCHLAND.wav” WAVE
TRACK 02 AUDIO
TITLE “DEUTSCHLAND”
PERFORMER “Rammstein”
REM COMPOSER “”
INDEX 01 00:00:00
FILE “03 RADIO.wav” WAVE
TRACK 03 AUDIO
TITLE “RADIO”
PERFORMER “Rammstein”
REM COMPOSER “”
INDEX 01 00:00:00
FILE “04 「ZEIG DICH」.wav” WAVE
TRACK 04 AUDIO
TITLE “「ZEIG DICH」”
PERFORMER “Rammstein”
REM COMPOSER “”
INDEX 01 00:00:00
FILE “05 ZEIG DICH.wav” WAVE
TRACK 05 AUDIO
TITLE “ZEIG DICH”
PERFORMER “Rammstein”
REM COMPOSER “”
INDEX 01 00:00:00
FILE “06 「AUSLANDER」.wav” WAVE
TRACK 06 AUDIO
TITLE “「AUSLANDER」”
PERFORMER “Rammstein”
REM COMPOSER “”
INDEX 01 00:00:00
FILE “07 AUSLANDER.wav” WAVE
TRACK 07 AUDIO
TITLE “AUSLANDER”
PERFORMER “Rammstein”
REM COMPOSER “”
INDEX 01 00:00:00
FILE “08 「SEX」.wav” WAVE
TRACK 08 AUDIO
TITLE “「SEX」”
PERFORMER “Rammstein”
REM COMPOSER “”
INDEX 01 00:00:00
FILE “09 SEX.wav” WAVE
TRACK 09 AUDIO
TITLE “SEX”
PERFORMER “Rammstein”
REM COMPOSER “”
INDEX 01 00:00:00
FILE “10 PUPPE.wav” WAVE
TRACK 10 AUDIO
TITLE “PUPPE”
PERFORMER “Rammstein”
REM COMPOSER “”
INDEX 01 00:00:00
FILE “11 「PUPPE」.wav” WAVE
TRACK 11 AUDIO
TITLE “「PUPPE」”
PERFORMER “Rammstein”
REM COMPOSER “”
INDEX 01 00:00:00
FILE “12 「WAS ICH LIEBE」.wav” WAVE
TRACK 12 AUDIO
TITLE “「WAS ICH LIEBE」”
PERFORMER “Rammstein”
REM COMPOSER “”
INDEX 01 00:00:00
FILE “13 WAS ICH LIEBE.wav” WAVE
TRACK 13 AUDIO
TITLE “WAS ICH LIEBE”
PERFORMER “Rammstein”
REM COMPOSER “”
INDEX 01 00:00:00
FILE “14 DIAMANT.wav” WAVE
TRACK 14 AUDIO
TITLE “DIAMANT”
PERFORMER “Rammstein”
REM COMPOSER “”
INDEX 01 00:00:00
FILE “15 「DIAMANT」.wav” WAVE
TRACK 15 AUDIO
TITLE “「DIAMANT」”
PERFORMER “Rammstein”
REM COMPOSER “”
INDEX 01 00:00:00
FILE “16 WEIT WEG.wav” WAVE
TRACK 16 AUDIO
TITLE “WEIT WEG”
PERFORMER “Rammstein”
REM COMPOSER “”
INDEX 01 00:00:00
FILE “17 「WEIT WEG」.wav” WAVE
TRACK 17 AUDIO
TITLE “「WEIT WEG」”
PERFORMER “Rammstein”
REM COMPOSER “”
INDEX 01 00:00:00
FILE “18 「TATTOO」.wav” WAVE
TRACK 18 AUDIO
TITLE “「TATTOO」”
PERFORMER “Rammstein”
REM COMPOSER “”
INDEX 01 00:00:00
FILE “19 TATTOO.wav” WAVE
TRACK 19 AUDIO
TITLE “TATTOO”
PERFORMER “Rammstein”
REM COMPOSER “”
INDEX 01 00:00:00
FILE “20 「HALLOMANN」.wav” WAVE
TRACK 20 AUDIO
TITLE “「HALLOMANN」”
PERFORMER “Rammstein”
REM COMPOSER “”
INDEX 01 00:00:00
FILE “21 HALLOMANN.wav” WAVE
TRACK 21 AUDIO
TITLE “HALLOMANN”
PERFORMER “Rammstein”
REM COMPOSER “”
INDEX 01 00:00:00
FILE “22 DEUTSCHLAND (RMX By Richard Z. KRUSPE).wav” WAVE
TRACK 22 AUDIO
TITLE “DEUTSCHLAND (RMX By Richard Z. KRUSPE)”
PERFORMER “Rammstein”
REM COMPOSER “”
INDEX 01 00:00:00
FILE “23 「RADIO」.wav” WAVE
TRACK 23 AUDIO
TITLE “「RADIO」”
PERFORMER “Rammstein”
REM COMPOSER “”
INDEX 01 00:00:00
FILE “24 RADIO (RMX By twocolors).wav” WAVE
TRACK 24 AUDIO
TITLE “RADIO (RMX By twocolors)”
PERFORMER “Rammstein”
REM COMPOSER “”
INDEX 01 00:00:00
FILE “25 「DEUTSCHLAND」.wav” WAVE
TRACK 25 AUDIO
TITLE “「DEUTSCHLAND」”
PERFORMER “Rammstein”
REM COMPOSER “”
INDEX 01 00:00:00
FILE “26 DEUTSCHLAND (Video Version).wav” WAVE
TRACK 26 AUDIO
TITLE “DEUTSCHLAND (Video Version)”
PERFORMER “Rammstein”
REM COMPOSER “”
INDEX 01 00:00:00


0

Publication author

offline 15 hours

Chaos

3
Comments: 4Publics: 3418Registration: 02-02-2019
Spread the Download

Leave a Reply

Your email address will not be published. Required fields are marked *

Enter the text from the image below
 

This site uses Akismet to reduce spam. Learn how your comment data is processed.