Rammstein – Rammstein (SACD)




Artist: Rammstein
Year: 2019
Genre: Metal
Notes: Discogs
Add. Notes:
Cover incl.: Yes
Encoder: FLAC
Bitrate: ~1750 kBit/s (44.1 kHz/24 Bit/s)
Log & Cue incl.: Yes
Size: 549,66 MB
Password: “slam” (without ” “)


All Downloads/Hosters are compatible

Download 1
Turbobit.net
Rapidgator.net
UploadEver.com
KatFile.com
UsersDrive.com
Download 2
Turbobit.net
Rapidgator.net
UploadEver.com
KatFile.com
UsersDrive.com
Download 3
Turbobit.net
Rapidgator.net
UploadEver.com
KatFile.com
UsersDrive.com

Tracklist:

1 - Deutschland - 5:26
2 - Radio - 4:37
3 - Zeig Dich - 4:15
4 - Ausländer - 3:51
5 - Sex - 3:56
6 - Puppe - 4:33
7 - Was Ich Liebe - 4:29
8 - Diamant - 2:34
9 - Weit Weg - 4:20
10 - Tattoo - 4:11
11 - Hallomann - 4:11

EAC-Log, CUE-Sheed & NFO:

Click to open spoiler
Spektrum 1:
https://i106.fastpic.ru/big/2019/0601/6e/_
30a60b3f9da1ac8671d7d7e0780f5a6e.jpg
======================
Spektrum 2:
https://i110.fastpic.ru/big/2019/0601/7a/
_ffa3686a137ce27d6bccb24d1bfdaa7a.jpg

======================

foobar2000 1.4.4 / Замер динамического диапазона (DR) 1.1.1
Дата отчёта: 2019-05-23 14:44:24

——————————————————————————–
Анализ: Rammstein / Rammstein
——————————————————————————–

DR Пики RMS Продолжительность трека
——————————————————————————–
DR7 -0.01 дБ -7.80 дБ 5:23 01-01. Deutschland
DR9 -0.41 дБ -11.57 дБ 4:37 02-02. Radio
DR7 -0.01 дБ -8.41 дБ 4:15 03-03. Zeig Dich
DR7 -0.01 дБ -8.82 дБ 3:52 04-04. Auslander
DR7 -0.01 дБ -8.33 дБ 3:56 05-05. Sex
DR7 -0.01 дБ -10.31 дБ 4:34 06-06. Puppe
DR8 -0.01 дБ -9.33 дБ 4:30 07-07. Was Ich Liebe
DR9 -0.02 дБ -10.65 дБ 2:34 08-08. Diamant
DR8 -0.01 дБ -8.37 дБ 4:20 09-09. Weit Weg
DR7 -0.01 дБ -8.95 дБ 4:11 10-10. Tattoo
DR7 -0.01 дБ -9.27 дБ 4:11 11-11. Hallomann
——————————————————————————–

Количество треков: 11
Реальные значения DR: DR8

Частота: 44100 Гц
Каналов: 2
Разрядность: 24
Битрейт: 1706 кбит/с
Кодек: FLAC
================================================================================

REM GENRE Industrial
REM DATE 2019
REM DISCID 970ADE0B
REM COMMENT “ExactAudioCopy v0.99pb5”
PERFORMER “Rammstein”
TITLE “Rammstein”
FILE “01. Deutschland.flac” WAVE
TRACK 01 AUDIO
TITLE “Deutschland”
PERFORMER “Rammstein”
INDEX 01 00:00:00
FILE “02. Radio.flac” WAVE
TRACK 02 AUDIO
TITLE “Radio”
PERFORMER “Rammstein”
INDEX 01 00:00:00
FILE “03. Zeig Dich.flac” WAVE
TRACK 03 AUDIO
TITLE “Zeig Dich”
PERFORMER “Rammstein”
INDEX 01 00:00:00
FILE “04. Auslander.flac” WAVE
TRACK 04 AUDIO
TITLE “Auslander”
PERFORMER “Rammstein”
INDEX 01 00:00:00
FILE “05. Sex.flac” WAVE
TRACK 05 AUDIO
TITLE “Sex”
PERFORMER “Rammstein”
INDEX 01 00:00:00
FILE “06. Puppe.flac” WAVE
TRACK 06 AUDIO
TITLE “Puppe”
PERFORMER “Rammstein”
INDEX 01 00:00:00
FILE “07. Was Ich Liebe.flac” WAVE
TRACK 07 AUDIO
TITLE “Was Ich Liebe”
PERFORMER “Rammstein”
INDEX 01 00:00:00
FILE “08. Diamant.flac” WAVE
TRACK 08 AUDIO
TITLE “Diamant”
PERFORMER “Rammstein”
INDEX 01 00:00:00
FILE “09. Weit Weg.flac” WAVE
TRACK 09 AUDIO
TITLE “Weit Weg”
PERFORMER “Rammstein”
INDEX 01 00:00:00
FILE “10. Tattoo.flac” WAVE
TRACK 10 AUDIO
TITLE “Tattoo”
PERFORMER “Rammstein”
INDEX 01 00:00:00
FILE “11. Hallomann.flac” WAVE
TRACK 11 AUDIO
TITLE “Hallomann”
PERFORMER “Rammstein”
INDEX 01 00:00:00

Leave a Reply

Your email address will not be published. Required fields are marked *

Enter the text from the image below
 

This site uses Akismet to reduce spam. Learn how your comment data is processed.