Rammstein – Paris (Live)




Artist: Rammstein
Year: 2017
Genre: Rock
Notes: Discogs
Add. Notes:
Encoder: WavPack
Bitrate: ~1000 kBit/s (VBR)
Size: 891,88 MB
Password: “slam” (without ” “)


Tracklist:

1-1 Intro 
1-2 Sonne 
1-3 Wollt Ihr Das Bett in Flammen Sehen 
1-4 Keine Lust 
1-5 Sehnsucht 
1-6 Asche Zu Asche 
1-7 Feuer Frei! 
1-8 Mutter 
1-9 Mein Teil 
1-10 Du Riechst So Gut 
1-11 Links 2-3-4 
1-12 Du Hast 
1-13 Haifisch 
2-1 Bück Dich 
2-2 Mann Gegen Mann 
2-3 Ohne Dich 
2-4 Mein Herz Brennt 
2-5 Amerika 
2-6 Ich Will 
2-7 Engel 
2-8 Pussy 
2-9 Frühling in Paris

EAC-Log, CUE-Sheed & NFO:

Click to open spoiler
Exact Audio Copy V1.2 from 12. August 2016

EAC extraction logfile from 19. May 2017, 12:54

Rammstein / Paris (CD1)

Used drive : HL-DT-STBD-RE BH10LS38 Adapter: 1 ID: 1

Read mode : Secure
Utilize accurate stream : Yes
Defeat audio cache : Yes
Make use of C2 pointers : No

Read offset correction : 667
Overread into Lead-In and Lead-Out : No
Fill up missing offset samples with silence : Yes
Delete leading and trailing silent blocks : No
Null samples used in CRC calculations : Yes
Used interface : Installed external ASPI interface

Used output format : User Defined Encoder
Selected bitrate : 128 kBit/s
Quality : High
Add ID3 tag : No
Command line compressor : C:\Program Files (x86)\Exact Audio Copy\wavpack-4.60.1\wavpack.exe
Additional command line options : -hm -w “Year=%year%” -w “Genre=%genre%” %source% %dest%

TOC of the extracted CD

Track | Start | Length | Start sector | End sector
———————————————————
1 | 0:00.00 | 4:14.01 | 0 | 19050
2 | 4:14.01 | 4:45.05 | 19051 | 40430
3 | 8:59.06 | 5:06.36 | 40431 | 63416
4 | 14:05.42 | 4:08.20 | 63417 | 82036
5 | 18:13.62 | 4:26.52 | 82037 | 102038
6 | 22:40.39 | 4:05.27 | 102039 | 120440
7 | 26:45.66 | 3:34.34 | 120441 | 136524
8 | 30:20.25 | 5:20.40 | 136525 | 160564
9 | 35:40.65 | 7:46.50 | 160565 | 195564
10 | 43:27.40 | 5:28.28 | 195565 | 220192
11 | 48:55.68 | 5:02.39 | 220193 | 242881
12 | 53:58.32 | 4:17.69 | 242882 | 262225
13 | 58:16.26 | 5:24.00 | 262226 | 286525

Range status and errors

Selected range

Filename G:\Rips by Alder\Rammstein – Paris (CD1).wav

Peak level 97.3 %
Extraction speed 7.8 X
Range quality 99.9 %
Test CRC 2FC463C3
Copy CRC 2FC463C3
Copy OK

No errors occurred

AccurateRip summary

Track 1 not present in database
Track 2 not present in database
Track 3 not present in database
Track 4 not present in database
Track 5 not present in database
Track 6 not present in database
Track 7 not present in database
Track 8 not present in database
Track 9 not present in database
Track 10 not present in database
Track 11 not present in database
Track 12 not present in database
Track 13 not present in database

None of the tracks are present in the AccurateRip database

End of status report

—- CUETools DB Plugin V2.1.6

[CTDB TOCID: F.LmMiHZ4532EfCa0bxaCaMcuNk-] found
Submit result: F.LmMiHZ4532EfCa0bxaCaMcuNk- has been confirmed
Track | CTDB Status
1 | (13/13) Accurately ripped
2 | (13/13) Accurately ripped
3 | (13/13) Accurately ripped
4 | (13/13) Accurately ripped
5 | (13/13) Accurately ripped
6 | (13/13) Accurately ripped
7 | (13/13) Accurately ripped
8 | (12/13) Accurately ripped
9 | (13/13) Accurately ripped
10 | (13/13) Accurately ripped
11 | (13/13) Accurately ripped
12 | (13/13) Accurately ripped
13 | (13/13) Accurately ripped

==== Log checksum 74303A431AECB6E772529424F1B5B002189F8D3108954BE85E671DC908318498 ====

REM GENRE Industrial
REM DATE 2017
REM DISCID B20EEC0D
REM COMMENT “ExactAudioCopy v1.2”
PERFORMER “Rammstein”
TITLE “Paris (CD1)”
REM COMPOSER “”
FILE “Rammstein – Paris (CD1).wv” WAVE
TRACK 01 AUDIO
TITLE “Intro”
PERFORMER “Rammstein”
REM COMPOSER “”
INDEX 01 00:00:00
TRACK 02 AUDIO
TITLE “Sonne”
PERFORMER “Rammstein”
REM COMPOSER “”
INDEX 01 04:14:01
TRACK 03 AUDIO
TITLE “Wollt Ihr Das Bett In Flammen Sehen”
PERFORMER “Rammstein”
REM COMPOSER “”
INDEX 01 08:59:06
TRACK 04 AUDIO
TITLE “Keine Lust”
PERFORMER “Rammstein”
REM COMPOSER “”
INDEX 01 14:05:42
TRACK 05 AUDIO
TITLE “Sehnsucht”
PERFORMER “Rammstein”
REM COMPOSER “”
INDEX 01 18:13:62
TRACK 06 AUDIO
TITLE “Asche Zu Asche”
PERFORMER “Rammstein”
REM COMPOSER “”
INDEX 01 22:40:39
TRACK 07 AUDIO
TITLE “Feuer Frei!”
PERFORMER “Rammstein”
REM COMPOSER “”
INDEX 01 26:45:66
TRACK 08 AUDIO
TITLE “Mutter”
PERFORMER “Rammstein”
REM COMPOSER “”
INDEX 01 30:20:25
TRACK 09 AUDIO
TITLE “Mein Teil”
PERFORMER “Rammstein”
REM COMPOSER “”
INDEX 01 35:40:65
TRACK 10 AUDIO
TITLE “Du Riechst So Gut”
PERFORMER “Rammstein”
REM COMPOSER “”
INDEX 01 43:27:40
TRACK 11 AUDIO
TITLE “Links 2-3-4”
PERFORMER “Rammstein”
REM COMPOSER “”
INDEX 01 48:55:68
TRACK 12 AUDIO
TITLE “Du Hast”
PERFORMER “Rammstein”
REM COMPOSER “”
INDEX 01 53:58:32
TRACK 13 AUDIO
TITLE “Haifisch”
PERFORMER “Rammstein”
REM COMPOSER “”
INDEX 01 58:16:26

—–

-Exact Audio Copy V1.2 from 12. August 2016

EAC extraction logfile from 19. May 2017, 13:23

Rammstein / Paris (CD2)

Used drive : HL-DT-STBD-RE BH10LS38 Adapter: 1 ID: 1

Read mode : Secure
Utilize accurate stream : Yes
Defeat audio cache : Yes
Make use of C2 pointers : No

Read offset correction : 667
Overread into Lead-In and Lead-Out : No
Fill up missing offset samples with silence : Yes
Delete leading and trailing silent blocks : No
Null samples used in CRC calculations : Yes
Used interface : Installed external ASPI interface

Used output format : User Defined Encoder
Selected bitrate : 128 kBit/s
Quality : High
Add ID3 tag : No
Command line compressor : C:\Program Files (x86)\Exact Audio Copy\wavpack-4.60.1\wavpack.exe
Additional command line options : -hm -w “Year=%year%” -w “Genre=%genre%” %source% %dest%

TOC of the extracted CD

Track | Start | Length | Start sector | End sector
———————————————————
1 | 0:00.00 | 7:55.32 | 0 | 35656
2 | 7:55.32 | 4:15.11 | 35657 | 54792
3 | 12:10.43 | 7:29.21 | 54793 | 88488
4 | 19:39.64 | 5:08.44 | 88489 | 111632
5 | 24:48.33 | 4:52.03 | 111633 | 133535
6 | 29:40.36 | 4:07.27 | 133536 | 152087
7 | 33:47.63 | 5:13.18 | 152088 | 175580
8 | 39:01.06 | 8:21.24 | 175581 | 213179
9 | 47:22.30 | 6:16.37 | 213180 | 241416

Range status and errors

Selected range

Filename G:\Rips by Alder\Rammstein – Paris (CD2).wav

Peak level 97.3 %
Extraction speed 7.5 X
Range quality 100.0 %
Test CRC 5DC39DA3
Copy CRC 5DC39DA3
Copy OK

No errors occurred

AccurateRip summary

Track 1 not present in database
Track 2 not present in database
Track 3 not present in database
Track 4 not present in database
Track 5 not present in database
Track 6 not present in database
Track 7 not present in database
Track 8 not present in database
Track 9 not present in database

None of the tracks are present in the AccurateRip database

End of status report

—- CUETools DB Plugin V2.1.6

[CTDB TOCID: CEqM0kQK1xcxEvUQ5mBKKN0ZNWE-] found
Submit result: CEqM0kQK1xcxEvUQ5mBKKN0ZNWE- has been confirmed
Track | CTDB Status
1 | (12/12) Accurately ripped
2 | (12/12) Accurately ripped
3 | (12/12) Accurately ripped
4 | (12/12) Accurately ripped
5 | (12/12) Accurately ripped
6 | (12/12) Accurately ripped
7 | (12/12) Accurately ripped
8 | (12/12) Accurately ripped
9 | (12/12) Accurately ripped

==== Log checksum 2BE8F525B5621A3F63A9E0BF4687E9003863849865CF8CA39405812D7E95D8D5 ====

REM GENRE Industrial
REM DATE 2017
REM DISCID 760C9209
REM COMMENT “ExactAudioCopy v1.2”
PERFORMER “Rammstein”
TITLE “Paris (CD2)”
REM COMPOSER “”
FILE “Rammstein – Paris (CD2).wv” WAVE
TRACK 01 AUDIO
TITLE “Bueck Dich”
PERFORMER “Rammstein”
REM COMPOSER “”
INDEX 01 00:00:00
TRACK 02 AUDIO
TITLE “Mann Gegen Mann”
PERFORMER “Rammstein”
REM COMPOSER “”
INDEX 01 07:55:32
TRACK 03 AUDIO
TITLE “Ohne Dich”
PERFORMER “Rammstein”
REM COMPOSER “”
INDEX 01 12:10:43
TRACK 04 AUDIO
TITLE “Mein Herz Brennt”
PERFORMER “Rammstein”
REM COMPOSER “”
INDEX 01 19:39:64
TRACK 05 AUDIO
TITLE “Amerika”
PERFORMER “Rammstein”
REM COMPOSER “”
INDEX 01 24:48:33
TRACK 06 AUDIO
TITLE “Ich Will”
PERFORMER “Rammstein”
REM COMPOSER “”
INDEX 01 29:40:36
TRACK 07 AUDIO
TITLE “Engel”
PERFORMER “Rammstein”
REM COMPOSER “”
INDEX 01 33:47:63
TRACK 08 AUDIO
TITLE “Pussy”
PERFORMER “Rammstein”
REM COMPOSER “”
INDEX 01 39:01:06
TRACK 09 AUDIO
TITLE “Fruhling in Paris”
PERFORMER “Rammstein”
REM COMPOSER “”
INDEX 01 47:22:30

Leave a Reply

Your email address will not be published. Required fields are marked *

This site uses Akismet to reduce spam. Learn how your comment data is processed.