Rammstein – Mutter (Limited Edition)




Artist: Rammstein
Year: 2001
Genre: Metal
Notes: Discogs
Add. Notes: Limited Edition
Cover incl.: Yes
Encoder: FLAC
Bitrate: ~5500 kBit/s (192 kHz/24 Bit/s)
Log & Cue incl.: Yes
Size: 2736,46 MB
Password: “slam” (without ” “)


All Downloads/Hosters are compatible

Download 1
Turbobit.net
Rapidgator.net
UploadEver.com
KatFile.com
UsersDrive.com
Download 2
Turbobit.net
Rapidgator.net
UploadEver.com
KatFile.com
UsersDrive.com
Download 3
Turbobit.net
Rapidgator.net
UploadEver.com
KatFile.com
UsersDrive.com

Tracklist:

A1 - Mein Herz Brennt - 4:39
A2 - Links 2 3 4 - 3:36
A3 - Sonne - 4:32
A4 - Ich Will - 3:37
A5 - Feuer Frei! - 3:08
A6 - Mutter - 4:28
B1 - Spieluhr - 4:46
B2 - Zwitter - 4:17
B3 - Rein Raus - 3:09
B4 - Adios - 3:48
B5 - Nebel - 4:54

EAC-Log, CUE-Sheed & NFO:

Click to open spoiler
REM GENRE Rock
REM DATE 2001
REM COMMENT 549 639-1
PERFORMER “Rammstein”
TITLE “Mutter”
FILE “Mutter.flac” WAVE
TRACK 01 AUDIO
TITLE “Mein Herz Brennt”
INDEX 01 00:00:00
TRACK 02 AUDIO
TITLE “Links 234”
INDEX 01 04:39:67
TRACK 03 AUDIO
TITLE “Sonne”
INDEX 01 08:16:47
TRACK 04 AUDIO
TITLE “Ich Will”
INDEX 01 12:49:45
TRACK 05 AUDIO
TITLE “Feuer Frei!”
INDEX 01 16:27:15
TRACK 06 AUDIO
TITLE “Mutter”
INDEX 01 19:38:47
TRACK 07 AUDIO
TITLE “Spieluhr”
INDEX 01 24:09:00
TRACK 08 AUDIO
TITLE “Zwitter”
INDEX 01 28:55:05
TRACK 09 AUDIO
TITLE “Rein Raus”
INDEX 01 33:12:27
TRACK 10 AUDIO
TITLE “Adios”
INDEX 01 36:22:25
TRACK 11 AUDIO
TITLE “Nebel”
INDEX 01 40:12:12

Leave a Reply

Your email address will not be published. Required fields are marked *

This site uses Akismet to reduce spam. Learn how your comment data is processed.