Rammstein – Mutter (Japanese Edition)




No Cover available

Artist: Rammstein
Year: 2001
Genre: Metal
Notes: Discogs
Add. Notes: Japanese Edition
Watch Songs on: YouTube
Cover incl.: Yes
Encoder: FLAC
Bitrate: ~900 kBit/s (44.1 kHz/16 Bit/s)
Log & Cue incl.: Yes/Yes
Size: 424,76 MB
Password: “slam” (without ” “)


All Downloads/Hosters are compatible

Download 1
KatFile.com
Turbobit.net
Rapidgator.net
FileFactory.com
Download 2
KatFile.com
Turbobit.net
Rapidgator.net
FileFactory.com

Tracklist:

1 Mein Herz  4:40
2 Links 2 3 4 3:37
3 Sonne	4:33
4 Ich Will 3:38
5 Feuer Frei! 3:11
6 Mutter 4:33
7 Spieluhr 4:46
8 Zwitter 4:18
9 Rein Raus 3:10
10 Adios 3:49

Japan Bonus Tracks:
11a Nebel 4:54
11b Hallelujah 3:39

EAC-Log, CUE-Sheed & NFO:

Click to open spoiler
Exact Audio Copy V0.99 prebeta 5 from 4. May 2009

EAC extraction logfile from 4. December 2010, 22:53

Rammstein / Mutter

Used drive : TSSTcorpCDDVDW TS-L632H Adapter: 1 ID: 0

Read mode : Secure
Utilize accurate stream : Yes
Defeat audio cache : Yes
Make use of C2 pointers : No

Read offset correction : 6
Overread into Lead-In and Lead-Out : No
Fill up missing offset samples with silence : Yes
Delete leading and trailing silent blocks : No
Null samples used in CRC calculations : Yes
Used interface : Native Win32 interface for Win NT & 2000
Gap handling : Appended to previous track

Used output format : User Defined Encoder
Selected bitrate : 128 kBit/s
Quality : High
Add ID3 tag : No
Command line compressor : C:\Program Files\Exact Audio Copy\Flac\flac.exe
Additional command line options : -8 -V -T “ARTIST=%a” -T “TITLE=%t” -T “ALBUM=%g” -T “DATE=%y” -T “TRACKNUMBER=%n” -T “GENRE=%m” -T “COMMENT=EAC FLAC -8” %s

TOC of the extracted CD

Track | Start | Length | Start sector | End sector
———————————————————
1 | 0:00.00 | 4:39.67 | 0 | 20991
2 | 4:39.67 | 3:36.55 | 20992 | 37246
3 | 8:16.47 | 4:32.73 | 37247 | 57719
4 | 12:49.45 | 3:37.45 | 57720 | 74039
5 | 16:27.15 | 3:11.32 | 74040 | 88396
6 | 19:38.47 | 4:32.45 | 88397 | 108841
7 | 24:11.17 | 4:46.13 | 108842 | 130304
8 | 28:57.30 | 4:17.37 | 130305 | 149616
9 | 33:14.67 | 3:09.73 | 149617 | 163864
10 | 36:24.65 | 3:49.72 | 163865 | 181111
11 | 40:14.62 | 10:33.33 | 181112 | 228619

Track 1

Filename H:\Rammstein Japan\Rammstein [Japan] new\2001 Mutter [Japan Edition]\01. Rammstein – Mein Herz Brennt.wav

Pre-gap length 0:00:02.00

Peak level 99.9 %
Track quality 99.9 %
Test CRC 7E4EAB30
Copy CRC 7E4EAB30
Accurately ripped (confidence 7) [6C1C3797]
Copy OK

Track 2

Filename H:\Rammstein Japan\Rammstein [Japan] new\2001 Mutter [Japan Edition]\02. Rammstein – Links 2 3 4.wav

Peak level 99.9 %
Track quality 100.0 %
Test CRC CEF723E5
Copy CRC CEF723E5
Accurately ripped (confidence 7) [A517BF5B]
Copy OK

Track 3

Filename H:\Rammstein Japan\Rammstein [Japan] new\2001 Mutter [Japan Edition]\03. Rammstein – Sonne.wav

Peak level 99.9 %
Track quality 100.0 %
Test CRC 5DA72C2C
Copy CRC 5DA72C2C
Accurately ripped (confidence 7) [C3A74447]
Copy OK

Track 4

Filename H:\Rammstein Japan\Rammstein [Japan] new\2001 Mutter [Japan Edition]\04. Rammstein – Ich Will.wav

Pre-gap length 0:00:00.40

Peak level 99.9 %
Track quality 100.0 %
Test CRC AA33D25F
Copy CRC AA33D25F
Accurately ripped (confidence 7) [9327A696]
Copy OK

Track 5

Filename H:\Rammstein Japan\Rammstein [Japan] new\2001 Mutter [Japan Edition]\05. Rammstein – Feuer Frei!.wav

Pre-gap length 0:00:00.38

Peak level 99.9 %
Track quality 100.0 %
Test CRC 800544DE
Copy CRC 800544DE
Accurately ripped (confidence 7) [EAD37FD2]
Copy OK

Track 6

Filename H:\Rammstein Japan\Rammstein [Japan] new\2001 Mutter [Japan Edition]\06. Rammstein – Mutter.wav

Pre-gap length 0:00:02.62

Peak level 99.9 %
Track quality 99.9 %
Test CRC 557E428E
Copy CRC 557E428E
Accurately ripped (confidence 7) [310F8BF0]
Copy OK

Track 7

Filename H:\Rammstein Japan\Rammstein [Japan] new\2001 Mutter [Japan Edition]\07. Rammstein – Spieluhr.wav

Pre-gap length 0:00:04.00

Peak level 100.0 %
Track quality 100.0 %
Test CRC 95D5BA36
Copy CRC 95D5BA36
Accurately ripped (confidence 7) [A9797DAD]
Copy OK

Track 8

Filename H:\Rammstein Japan\Rammstein [Japan] new\2001 Mutter [Japan Edition]\08. Rammstein – Zwitter.wav

Peak level 99.9 %
Track quality 100.0 %
Test CRC B7918370
Copy CRC B7918370
Accurately ripped (confidence 7) [2004B388]
Copy OK

Track 9

Filename H:\Rammstein Japan\Rammstein [Japan] new\2001 Mutter [Japan Edition]\09. Rammstein – Rein Raus.wav

Peak level 99.9 %
Track quality 100.0 %
Test CRC 33EBC1B8
Copy CRC 33EBC1B8
Accurately ripped (confidence 7) [BEFF0367]
Copy OK

Track 10

Filename H:\Rammstein Japan\Rammstein [Japan] new\2001 Mutter [Japan Edition]\10. Rammstein – Adios.wav

Peak level 99.9 %
Track quality 100.0 %
Test CRC 590094B1
Copy CRC 590094B1
Accurately ripped (confidence 7) [D1E6D632]
Copy OK

Track 11

Filename H:\Rammstein Japan\Rammstein [Japan] new\2001 Mutter [Japan Edition]\11. Rammstein – Nebel.wav

Pre-gap length 0:00:01.35

Peak level 100.0 %
Track quality 100.0 %
Test CRC 8724BCE1
Copy CRC 8724BCE1
Accurately ripped (confidence 7) [1643B89A]
Copy OK

All tracks accurately ripped

No errors occurred

End of status report

REM GENRE Industrial
REM DATE 2001
REM DISCID AD0BE80B
REM COMMENT “ExactAudioCopy v0.99pb5”
PERFORMER “Rammstein”
TITLE “Mutter”
FILE “01. Rammstein – Mein Herz Brennt.wav” WAVE
TRACK 01 AUDIO
TITLE “Mein Herz Brennt”
PERFORMER “Rammstein”
INDEX 01 00:00:00
FILE “02. Rammstein – Links 2 3 4.wav” WAVE
TRACK 02 AUDIO
TITLE “Links 2 3 4”
PERFORMER “Rammstein”
INDEX 01 00:00:00
FILE “03. Rammstein – Sonne.wav” WAVE
TRACK 03 AUDIO
TITLE “Sonne”
PERFORMER “Rammstein”
INDEX 01 00:00:00
TRACK 04 AUDIO
TITLE “Ich Will”
PERFORMER “Rammstein”
INDEX 00 04:32:33
FILE “04. Rammstein – Ich Will.wav” WAVE
INDEX 01 00:00:00
TRACK 05 AUDIO
TITLE “Feuer Frei!”
PERFORMER “Rammstein”
INDEX 00 03:37:07
FILE “05. Rammstein – Feuer Frei!.wav” WAVE
INDEX 01 00:00:00
TRACK 06 AUDIO
TITLE “Mutter”
PERFORMER “Rammstein”
INDEX 00 03:08:45
FILE “06. Rammstein – Mutter.wav” WAVE
INDEX 01 00:00:00
TRACK 07 AUDIO
TITLE “Spieluhr”
PERFORMER “Rammstein”
INDEX 00 04:28:45
FILE “07. Rammstein – Spieluhr.wav” WAVE
INDEX 01 00:00:00
FILE “08. Rammstein – Zwitter.wav” WAVE
TRACK 08 AUDIO
TITLE “Zwitter”
PERFORMER “Rammstein”
INDEX 01 00:00:00
FILE “09. Rammstein – Rein Raus.wav” WAVE
TRACK 09 AUDIO
TITLE “Rein Raus”
PERFORMER “Rammstein”
INDEX 01 00:00:00
FILE “10. Rammstein – Adios.wav” WAVE
TRACK 10 AUDIO
TITLE “Adios”
PERFORMER “Rammstein”
INDEX 01 00:00:00
TRACK 11 AUDIO
TITLE “Nebel”
PERFORMER “Rammstein”
INDEX 00 03:48:37
FILE “11. Rammstein – Nebel.wav” WAVE
INDEX 01 00:00:00


0

Publication author

offline 8 hours

Chaos

3
Comments: 4Publics: 3424Registration: 02-02-2019
Spread the Download

Leave a Reply

Your email address will not be published. Required fields are marked *

Enter the text from the image below
 

This site uses Akismet to reduce spam. Learn how your comment data is processed.