Rammstein – Made In Germany 1995-2011




Artist: Rammstein
Year: 2011
Genre: Alternative
Notes: Discogs
Add. Notes:
Cover incl.: Yes
Encoder: FLAC
Bitrate: ~1000 kBit/s (44.1 kHz/16 Bit/s)
Log & Cue incl.: Yes
Size: 1094,9 MB
Password: “slam” (without ” “)


All Downloads/Hosters are compatible

Download 1
Turbobit.net
Rapidgator.net
UploadEver.com
JustUpload.io
UsersDrive.com
Download 2
Turbobit.net
Rapidgator.net
UploadEver.com
JustUpload.io
UsersDrive.com
Download 3
Turbobit.net
Rapidgator.net
UploadEver.com
JustUpload.io
UsersDrive.com

Tracklist:

1-1 - Engel - 4:23
1-2 - Links 2 3 4 - 3:40
1-3 - Keine Lust - 3:42
1-4 - Mein Teil - 4:38
1-5 - Du Hast - 3:54
1-6 - Du Riechst So Gut - 4:32
1-7 - Ich Will - 3:37
1-8 - Mein Herz Brennt - 4:40
1-9 - Mutter - 4:28
1-10 - Pussy - 3:58
1-11 - Rosenrot - 3:52
1-12 - Haifisch - 3:42
1-13 - Amerika - 3:47
1-14 - Sonne - 4:05
1-15 - Ohne Dich - 4:30
1-16 - Mein Land - 3:53
2-1 - Du Riechst So Gut '98 - Rmx By Faith No More - 1:59
2-2 - Du Hast - Rmx By Jacob Hellner - 6:43
2-3 - Stripped - Rmx By Johan Edlund (Tiamat) - 4:23
2-4 - Sonne - Rmx By Clawfinger - 4:10
2-5 - Links 2 3 4 - Rmx By Westbam - 3:41
2-6 - Mutter - Rmx By Sono - 7:22
2-7 - Feuer Frei! - Rmx By Junkie XL - 4:11
2-8 - Mein Teil - Rmx By Pet Shop Boys - 4:05
2-9 - Amerika - Rmx By Olsen Involtini - 3:16
2-10 - Ohne Dich - Rmx By Laibach - 3:58
2-11 - Keine Lust - Rmx By Black Strobe - 7:08
2-12 - Benzin - Rmx By Meshuggah - 5:06
2-13 - Rosenrot - Rmx By Northern Lite - 4:46
2-14 - Pussy - Rmx By Scooter - 4:54
2-15 - Rammlied - Rmx By Devin Townsend - 5:06
2-16 - Ich Tu Dir Weh - Rmx By Fukkk Offf - 6:08
2-17 - Haifisch - Rmx By Hurts - 3:46

EAC-Log, CUE-Sheed & NFO:

Click to open spoiler
Exact Audio Copy V1.0 beta 3 from 29. August 2011

Отчёт EAC об извлечении, выполненном 2. декабря 2011, 19:08

Rammstein / Made in Germany 1995-2011

Дисковод: HL-DT-STBD-RE BH10LS30 Adapter: 2 ID: 0

Режим чтения : Достоверность

Коррекция смещения при чтении : 667
Способность читать области Lead-in и Lead-out : Нет
Заполнение пропущенных сэмплов тишиной : Да
Удаление блоков с тишиной в начале и конце : Нет
При вычислениях CRC использовались нулевые сэмплы : Да
Интерфейс : Встроенный Win32-интерфейс для Win NT/2000
Обработка зазоров : Добавлено к предыдущему треку

Выходной формат : Пользовательский кодировщик
Выбранный битрейт : 128 kBit/s
Качество : Высокий
Добавление ID3-тега : Нет
Утилита сжатия : C:\Program Files (x86)\FLAC\flac.exe
Дополнительные параметры : -V -8 -T “Genre=%genre%” -T “Artist=%artist%” -T “Title=%title%” -T “Album=%albumtitle%” -T “Date=%year%” -T “Tracknumber=%tracknr%” -T “Comment=%comment%” %source%

TOC извлечённого CD

Трек | Старт | Длительность | Начальный сектор | Конечный сектор
———————————————————————
1 | 0:00.00 | 4:23.37 | 0 | 19761
2 | 4:23.37 | 3:40.24 | 19762 | 36285
3 | 8:03.61 | 3:42.06 | 36286 | 52941
4 | 11:45.67 | 4:38.70 | 52942 | 73861
5 | 16:24.62 | 3:54.53 | 73862 | 91464
6 | 20:19.40 | 4:32.53 | 91465 | 111917
7 | 24:52.18 | 3:39.47 | 111918 | 128389
8 | 28:31.65 | 4:41.60 | 128390 | 149524
9 | 33:13.50 | 4:31.41 | 149525 | 169890
10 | 37:45.16 | 3:58.62 | 169891 | 187802
11 | 41:44.03 | 3:52.50 | 187803 | 205252
12 | 45:36.53 | 3:42.69 | 205253 | 221971
13 | 49:19.47 | 3:47.37 | 221972 | 239033
14 | 53:07.09 | 4:07.31 | 239034 | 257589
15 | 57:14.40 | 4:31.40 | 257590 | 277954
16 | 61:46.05 | 3:53.14 | 277955 | 295443

Трек 1

Имя файла F:\Rammstein\Audio\Albums\Made in Germany 1995-2011 (2011, FLAC)\01 Engel.wav

Длина предзазора 0:00:02.00

Пиковый уровень 94.4 %
Скорость извлечения 4.6 X
CRC теста 015D6702
CRC копии 015D6702
Копирование… OK

Трек 2

Имя файла F:\Rammstein\Audio\Albums\Made in Germany 1995-2011 (2011, FLAC)\02 Links 2 3 4.wav

Пиковый уровень 97.7 %
Скорость извлечения 5.7 X
CRC теста 02989BB5
CRC копии 02989BB5
Копирование… OK

Трек 3

Имя файла F:\Rammstein\Audio\Albums\Made in Germany 1995-2011 (2011, FLAC)\03 Keine Lust.wav

Пиковый уровень 97.7 %
Скорость извлечения 3.4 X
CRC теста F8C1CACA
CRC копии F8C1CACA
Копирование… OK

Трек 4

Имя файла F:\Rammstein\Audio\Albums\Made in Germany 1995-2011 (2011, FLAC)\04 Mein Teil.wav

Пиковый уровень 97.7 %
Скорость извлечения 4.2 X
CRC теста 8DD89011
CRC копии 8DD89011
Копирование… OK

Трек 5

Имя файла F:\Rammstein\Audio\Albums\Made in Germany 1995-2011 (2011, FLAC)\05 Du hast.wav

Пиковый уровень 92.2 %
Скорость извлечения 5.9 X
CRC теста 8ADFA302
CRC копии 8ADFA302
Копирование… OK

Трек 6

Имя файла F:\Rammstein\Audio\Albums\Made in Germany 1995-2011 (2011, FLAC)\06 Du riechst so gut.wav

Пиковый уровень 97.7 %
Скорость извлечения 5.4 X
CRC теста BBF1E508
CRC копии BBF1E508
Копирование… OK

Трек 7

Имя файла F:\Rammstein\Audio\Albums\Made in Germany 1995-2011 (2011, FLAC)\07 Ich will.wav

Пиковый уровень 97.7 %
Скорость извлечения 2.9 X
CRC теста 0682D148
CRC копии 0682D148
Копирование… OK

Трек 8

Имя файла F:\Rammstein\Audio\Albums\Made in Germany 1995-2011 (2011, FLAC)\08 Mein herz brennt.wav

Длина предзазора 0:00:01.59

Пиковый уровень 97.7 %
Скорость извлечения 3.8 X
CRC теста 7E30791E
CRC копии 7E30791E
Копирование… OK

Трек 9

Имя файла F:\Rammstein\Audio\Albums\Made in Germany 1995-2011 (2011, FLAC)\09 Mutter.wav

Длина предзазора 0:00:01.63

Пиковый уровень 98.1 %
Скорость извлечения 4.8 X
CRC теста 4FB3BC56
CRC копии 4FB3BC56
Копирование… OK

Трек 10

Имя файла F:\Rammstein\Audio\Albums\Made in Germany 1995-2011 (2011, FLAC)\10 Pussy.wav

Длина предзазора 0:00:02.66

Пиковый уровень 97.7 %
Скорость извлечения 3.9 X
CRC теста 651433CD
CRC копии 651433CD
Копирование… OK

Трек 11

Имя файла F:\Rammstein\Audio\Albums\Made in Germany 1995-2011 (2011, FLAC)\11 Rosenrot.wav

Пиковый уровень 97.7 %
Скорость извлечения 3.0 X
CRC теста 5B0FB755
CRC копии 5B0FB755
Копирование… OK

Трек 12

Имя файла F:\Rammstein\Audio\Albums\Made in Germany 1995-2011 (2011, FLAC)\12 Haifisch.wav

Пиковый уровень 97.7 %
Скорость извлечения 3.1 X
CRC теста AEAA26E2
CRC копии AEAA26E2
Копирование… OK

Трек 13

Имя файла F:\Rammstein\Audio\Albums\Made in Germany 1995-2011 (2011, FLAC)\13 Amerika.wav

Пиковый уровень 97.7 %
Скорость извлечения 3.2 X
CRC теста D09AA2EE
CRC копии D09AA2EE
Копирование… OK

Трек 14

Имя файла F:\Rammstein\Audio\Albums\Made in Germany 1995-2011 (2011, FLAC)\14 Sonne.wav

Пиковый уровень 97.7 %
Скорость извлечения 3.3 X
CRC теста A1311587
CRC копии A1311587
Копирование… OK

Трек 15

Имя файла F:\Rammstein\Audio\Albums\Made in Germany 1995-2011 (2011, FLAC)\15 Ohne dich.wav

Длина предзазора 0:00:01.42

Пиковый уровень 97.7 %
Скорость извлечения 3.4 X
CRC теста 5DEF5DDB
CRC копии 5DEF5DDB
Копирование… OK

Трек 16

Имя файла F:\Rammstein\Audio\Albums\Made in Germany 1995-2011 (2011, FLAC)\16 Mein Land.wav

Длина предзазора 0:00:01.37

Пиковый уровень 97.7 %
Скорость извлечения 3.4 X
CRC теста FBA89B6F
CRC копии FBA89B6F
Копирование… OK

Ошибок не произошло

Конец отчёта

==== Контрольная сумма отчёта 0D8860F60C4FFB433CAAD9AE75ED5092BF874AB3263BD376E18A108AA1DAB738 ====
Exact Audio Copy V1.0 beta 3 from 29. August 2011

Отчёт EAC об извлечении, выполненном 2. декабря 2011, 20:09

Rammstein / Made In Germany 1995-2011 (Remixes)

Дисковод: HL-DT-STBD-RE BH10LS30 Adapter: 2 ID: 0

Режим чтения : Достоверность

Коррекция смещения при чтении : 667
Способность читать области Lead-in и Lead-out : Нет
Заполнение пропущенных сэмплов тишиной : Да
Удаление блоков с тишиной в начале и конце : Нет
При вычислениях CRC использовались нулевые сэмплы : Да
Интерфейс : Встроенный Win32-интерфейс для Win NT/2000
Обработка зазоров : Добавлено к предыдущему треку

Выходной формат : Пользовательский кодировщик
Выбранный битрейт : 128 kBit/s
Качество : Высокий
Добавление ID3-тега : Нет
Утилита сжатия : C:\Program Files (x86)\FLAC\flac.exe
Дополнительные параметры : -V -8 -T “Genre=%genre%” -T “Artist=%artist%” -T “Title=%title%” -T “Album=%albumtitle%” -T “Date=%year%” -T “Tracknumber=%tracknr%” -T “Comment=%comment%” %source%

TOC извлечённого CD

Трек | Старт | Длительность | Начальный сектор | Конечный сектор
———————————————————————
1 | 0:00.00 | 1:58.48 | 0 | 8897
2 | 1:58.48 | 6:42.65 | 8898 | 39112
3 | 8:41.38 | 4:22.58 | 39113 | 58820
4 | 13:04.21 | 4:09.68 | 58821 | 77563
5 | 17:14.14 | 3:40.68 | 77564 | 94131
6 | 20:55.07 | 7:21.54 | 94132 | 127260
7 | 28:16.61 | 4:10.47 | 127261 | 146057
8 | 32:27.33 | 4:04.59 | 146058 | 164416
9 | 36:32.17 | 3:15.66 | 164417 | 179107
10 | 39:48.08 | 3:58.39 | 179108 | 196996
11 | 43:46.47 | 7:07.69 | 196997 | 229090
12 | 50:54.41 | 5:05.31 | 229091 | 251996
13 | 55:59.72 | 4:46.16 | 251997 | 273462
14 | 60:46.13 | 4:53.66 | 273463 | 295503
15 | 65:40.04 | 5:06.03 | 295504 | 318456
16 | 70:46.07 | 6:08.11 | 318457 | 346067
17 | 76:54.18 | 3:45.27 | 346068 | 362969

Трек 1

Имя файла F:\Rammstein\Audio\Albums\Made in Germany 1995-2011 (2011, FLAC)\CD2\01 Du Riechst So Gut ’98 – Rmx By Faith No More.wav

Длина предзазора 0:00:02.00

Пиковый уровень 76.5 %
Скорость извлечения 5.8 X
CRC теста EC95B36A
CRC копии EC95B36A
Копирование… OK

Трек 2

Имя файла F:\Rammstein\Audio\Albums\Made in Germany 1995-2011 (2011, FLAC)\CD2\02 Du Hast – Rmx By Jacob Hellner.wav

Пиковый уровень 98.6 %
Скорость извлечения 6.0 X
CRC теста B8B5254C
CRC копии B8B5254C
Копирование… OK

Трек 3

Имя файла F:\Rammstein\Audio\Albums\Made in Germany 1995-2011 (2011, FLAC)\CD2\03 Stripped – Rmx By Johan Edlund (Tiamat).wav

Пиковый уровень 96.9 %
Скорость извлечения 2.9 X
CRC теста 4DB4F4FD
CRC копии 4DB4F4FD
Копирование… OK

Трек 4

Имя файла F:\Rammstein\Audio\Albums\Made in Germany 1995-2011 (2011, FLAC)\CD2\04 Sonne – Rmx By Clawfinger.wav

Пиковый уровень 89.4 %
Скорость извлечения 3.2 X
CRC теста 284E49A5
CRC копии 284E49A5
Копирование… OK

Трек 5

Имя файла F:\Rammstein\Audio\Albums\Made in Germany 1995-2011 (2011, FLAC)\CD2\05 Links 2 3 4 – Rmx By Westbam.wav

Пиковый уровень 98.2 %
Скорость извлечения 4.9 X
CRC теста 3269224F
CRC копии 3269224F
Копирование… OK

Трек 6

Имя файла F:\Rammstein\Audio\Albums\Made in Germany 1995-2011 (2011, FLAC)\CD2\06 Mutter – Rmx By Sono.wav

Пиковый уровень 99.0 %
Скорость извлечения 3.9 X
CRC теста 598534A6
CRC копии 598534A6
Копирование… OK

Трек 7

Имя файла F:\Rammstein\Audio\Albums\Made in Germany 1995-2011 (2011, FLAC)\CD2\07 Feuer Frei! – Rmx By Junkie Xl.wav

Пиковый уровень 90.2 %
Скорость извлечения 3.5 X
CRC теста 916AB8DF
CRC копии 916AB8DF
Копирование… OK

Трек 8

Имя файла F:\Rammstein\Audio\Albums\Made in Germany 1995-2011 (2011, FLAC)\CD2\08 Mein Teil – Rmx By Pet Shop Boys.wav

Пиковый уровень 91.9 %
Скорость извлечения 2.6 X
CRC теста 57D62D3E
CRC копии 57D62D3E
Копирование… OK

Трек 9

Имя файла F:\Rammstein\Audio\Albums\Made in Germany 1995-2011 (2011, FLAC)\CD2\09 Amerika – Rmx By Olsen Involtini.wav

Пиковый уровень 81.3 %
Скорость извлечения 3.5 X
CRC теста 8A65231E
CRC копии 8A65231E
Копирование… OK

Трек 10

Имя файла F:\Rammstein\Audio\Albums\Made in Germany 1995-2011 (2011, FLAC)\CD2\10 Ohne Dich – Rmx By Laibach.wav

Пиковый уровень 88.7 %
Скорость извлечения 3.6 X
CRC теста 91A68718
CRC копии 91A68718
Копирование… OK

Трек 11

Имя файла F:\Rammstein\Audio\Albums\Made in Germany 1995-2011 (2011, FLAC)\CD2\11 Keine Lust – Rmx By Black Strobe.wav

Пиковый уровень 100.0 %
Скорость извлечения 3.2 X
CRC теста 915C284F
CRC копии 915C284F
Копирование… OK

Трек 12

Имя файла F:\Rammstein\Audio\Albums\Made in Germany 1995-2011 (2011, FLAC)\CD2\12 Benzin – Rmx By Meshuggah.wav

Пиковый уровень 97.2 %
Скорость извлечения 3.6 X
CRC теста 8842852E
CRC копии 8842852E
Копирование… OK

Трек 13

Имя файла F:\Rammstein\Audio\Albums\Made in Germany 1995-2011 (2011, FLAC)\CD2\13 Rosenrot – Rmx By Northern Lite.wav

Пиковый уровень 97.2 %
Скорость извлечения 3.6 X
CRC теста DAA43486
CRC копии DAA43486
Копирование… OK

Трек 14

Имя файла F:\Rammstein\Audio\Albums\Made in Germany 1995-2011 (2011, FLAC)\CD2\14 Pussy – Rmx By Scooter.wav

Пиковый уровень 94.3 %
Скорость извлечения 3.8 X
CRC теста A76F0A3C
CRC копии A76F0A3C
Копирование… OK

Трек 15

Имя файла F:\Rammstein\Audio\Albums\Made in Germany 1995-2011 (2011, FLAC)\CD2\15 Rammlied – Rmx By Devin Townsend.wav

Пиковый уровень 100.0 %
Скорость извлечения 3.9 X
CRC теста 18548767
CRC копии 18548767
Копирование… OK

Трек 16

Имя файла F:\Rammstein\Audio\Albums\Made in Germany 1995-2011 (2011, FLAC)\CD2\16 Ich Tu Dir Weh – Rmx By Fukkk Offf.wav

Пиковый уровень 94.1 %
Скорость извлечения 3.3 X
CRC теста 55D15FBC
CRC копии 55D15FBC
Копирование… OK

Трек 17

Имя файла F:\Rammstein\Audio\Albums\Made in Germany 1995-2011 (2011, FLAC)\CD2\17 Haifisch – Rmx By Hurts.wav

Длина предзазора 0:00:00.05

Пиковый уровень 91.9 %
Скорость извлечения 3.9 X
CRC теста C77DF5B2
CRC копии C77DF5B2
Копирование… OK

Ошибок не произошло

Конец отчёта

==== Контрольная сумма отчёта BB0ACB7264DE5D086D62224FDA99945B1CAC44B223DCC28F0C9A29561B1FD515 ====

REM GENRE Industrial
REM DATE 2011
REM DISCID FC0F6310
REM COMMENT “ExactAudioCopy v1.0b3”
CATALOG 0602527864280
PERFORMER “Rammstein”
TITLE “Made in Germany 1995-2011”
FILE “01 Engel.wav” WAVE
TRACK 01 AUDIO
TITLE “Engel”
PERFORMER “Rammstein”
ISRC DEUM71103417
INDEX 01 00:00:00
FILE “02 Links 2 3 4.wav” WAVE
TRACK 02 AUDIO
TITLE “Links 2 3 4”
PERFORMER “Rammstein”
ISRC DEUM71103418
INDEX 01 00:00:00
FILE “03 Keine Lust.wav” WAVE
TRACK 03 AUDIO
TITLE “Keine Lust”
PERFORMER “Rammstein”
ISRC DEUM71103419
INDEX 01 00:00:00
FILE “04 Mein Teil.wav” WAVE
TRACK 04 AUDIO
TITLE “Mein Teil”
PERFORMER “Rammstein”
ISRC DEUM71103420
INDEX 01 00:00:00
FILE “05 Du hast.wav” WAVE
TRACK 05 AUDIO
TITLE “Du hast”
PERFORMER “Rammstein”
ISRC DEUM71103421
INDEX 01 00:00:00
FILE “06 Du riechst so gut.wav” WAVE
TRACK 06 AUDIO
TITLE “Du riechst so gut”
PERFORMER “Rammstein”
ISRC DEUM71103422
INDEX 01 00:00:00
FILE “07 Ich will.wav” WAVE
TRACK 07 AUDIO
TITLE “Ich will”
PERFORMER “Rammstein”
ISRC DEUM71103423
INDEX 01 00:00:00
TRACK 08 AUDIO
TITLE “Mein herz brennt”
PERFORMER “Rammstein”
ISRC DEUM71103424
INDEX 00 03:37:63
FILE “08 Mein herz brennt.wav” WAVE
INDEX 01 00:00:00
TRACK 09 AUDIO
TITLE “Mutter”
PERFORMER “Rammstein”
ISRC DEUM71103425
INDEX 00 04:39:72
FILE “09 Mutter.wav” WAVE
INDEX 01 00:00:00
TRACK 10 AUDIO
TITLE “Pussy”
PERFORMER “Rammstein”
ISRC DEUM71103426
INDEX 00 04:28:50
FILE “10 Pussy.wav” WAVE
INDEX 01 00:00:00
FILE “11 Rosenrot.wav” WAVE
TRACK 11 AUDIO
TITLE “Rosenrot”
PERFORMER “Rammstein”
ISRC DEUM71103427
INDEX 01 00:00:00
FILE “12 Haifisch.wav” WAVE
TRACK 12 AUDIO
TITLE “Haifisch”
PERFORMER “Rammstein”
ISRC DEUM71103428
INDEX 01 00:00:00
FILE “13 Amerika.wav” WAVE
TRACK 13 AUDIO
TITLE “Amerika”
PERFORMER “Rammstein”
ISRC DEUM71103429
INDEX 01 00:00:00
FILE “14 Sonne.wav” WAVE
TRACK 14 AUDIO
TITLE “Sonne”
PERFORMER “Rammstein”
ISRC DEUM71103430
INDEX 01 00:00:00
TRACK 15 AUDIO
TITLE “Ohne dich”
PERFORMER “Rammstein”
ISRC DEUM71103431
INDEX 00 04:05:64
FILE “15 Ohne dich.wav” WAVE
INDEX 01 00:00:00
TRACK 16 AUDIO
TITLE “Mein Land”
PERFORMER “Rammstein”
ISRC DEUM71103432
INDEX 00 04:30:03
FILE “16 Mein Land.wav” WAVE
INDEX 01 00:00:00

REM GENRE Industrial
REM DATE 2011
REM DISCID 0212E711
REM COMMENT “ExactAudioCopy v1.0b3”
CATALOG 0602527864297
PERFORMER “Rammstein”
TITLE “Made In Germany 1995-2011 (Remixes)”
FILE “01 Du Riechst So Gut ’98 – Rmx By Faith No More.wav” WAVE
TRACK 01 AUDIO
TITLE “Du Riechst So Gut ’98 – Rmx By Faith No More”
PERFORMER “Rammstein”
ISRC DEUM71103437
INDEX 01 00:00:00
FILE “02 Du Hast – Rmx By Jacob Hellner.wav” WAVE
TRACK 02 AUDIO
TITLE “Du Hast – Rmx By Jacob Hellner”
PERFORMER “Rammstein”
ISRC DEUM71103438
INDEX 01 00:00:00
FILE “03 Stripped – Rmx By Johan Edlund (Tiamat).wav” WAVE
TRACK 03 AUDIO
TITLE “Stripped – Rmx By Johan Edlund (Tiamat)”
PERFORMER “Rammstein”
ISRC DEUM71103439
INDEX 01 00:00:00
FILE “04 Sonne – Rmx By Clawfinger.wav” WAVE
TRACK 04 AUDIO
TITLE “Sonne – Rmx By Clawfinger”
PERFORMER “Rammstein”
ISRC DEUM71103440
INDEX 01 00:00:00
FILE “05 Links 2 3 4 – Rmx By Westbam.wav” WAVE
TRACK 05 AUDIO
TITLE “Links 2 3 4 – Rmx By Westbam”
PERFORMER “Rammstein”
ISRC DEUM71103441
INDEX 01 00:00:00
FILE “06 Mutter – Rmx By Sono.wav” WAVE
TRACK 06 AUDIO
TITLE “Mutter – Rmx By Sono”
PERFORMER “Rammstein”
ISRC DEUM71103442
INDEX 01 00:00:00
FILE “07 Feuer Frei! – Rmx By Junkie Xl.wav” WAVE
TRACK 07 AUDIO
TITLE “Feuer Frei! – Rmx By Junkie Xl”
PERFORMER “Rammstein”
ISRC DEUM71103443
INDEX 01 00:00:00
FILE “08 Mein Teil – Rmx By Pet Shop Boys.wav” WAVE
TRACK 08 AUDIO
TITLE “Mein Teil – Rmx By Pet Shop Boys”
PERFORMER “Rammstein”
ISRC DEUM71103444
INDEX 01 00:00:00
FILE “09 Amerika – Rmx By Olsen Involtini.wav” WAVE
TRACK 09 AUDIO
TITLE “Amerika – Rmx By Olsen Involtini”
PERFORMER “Rammstein”
ISRC DEUM71103445
INDEX 01 00:00:00
FILE “10 Ohne Dich – Rmx By Laibach.wav” WAVE
TRACK 10 AUDIO
TITLE “Ohne Dich – Rmx By Laibach”
PERFORMER “Rammstein”
ISRC DEUM71103446
INDEX 01 00:00:00
FILE “11 Keine Lust – Rmx By Black Strobe.wav” WAVE
TRACK 11 AUDIO
TITLE “Keine Lust – Rmx By Black Strobe”
PERFORMER “Rammstein”
ISRC DEUM71103447
INDEX 01 00:00:00
FILE “12 Benzin – Rmx By Meshuggah.wav” WAVE
TRACK 12 AUDIO
TITLE “Benzin – Rmx By Meshuggah”
PERFORMER “Rammstein”
ISRC DEUM71103448
INDEX 01 00:00:00
FILE “13 Rosenrot – Rmx By Northern Lite.wav” WAVE
TRACK 13 AUDIO
TITLE “Rosenrot – Rmx By Northern Lite”
PERFORMER “Rammstein”
ISRC DEUM71103449
INDEX 01 00:00:00
FILE “14 Pussy – Rmx By Scooter.wav” WAVE
TRACK 14 AUDIO
TITLE “Pussy – Rmx By Scooter”
PERFORMER “Rammstein”
ISRC DEUM71103450
INDEX 01 00:00:00
FILE “15 Rammlied – Rmx By Devin Townsend.wav” WAVE
TRACK 15 AUDIO
TITLE “Rammlied – Rmx By Devin Townsend”
PERFORMER “Rammstein”
ISRC DEUM71103451
INDEX 01 00:00:00
FILE “16 Ich Tu Dir Weh – Rmx By Fukkk Offf.wav” WAVE
TRACK 16 AUDIO
TITLE “Ich Tu Dir Weh – Rmx By Fukkk Offf”
PERFORMER “Rammstein”
ISRC DEUM71103452
INDEX 01 00:00:00
FILE “17 Haifisch – Rmx By Hurts.wav” WAVE
TRACK 17 AUDIO
TITLE “Haifisch – Rmx By Hurts”
PERFORMER “Rammstein”
ISRC DEUM71103453
INDEX 01 00:00:00

Leave a Reply

Your email address will not be published. Required fields are marked *

This site uses Akismet to reduce spam. Learn how your comment data is processed.