Rammstein – Live Aus Berlin




Artist: Rammstein
Year: 1999
Genre: Rock
Notes: Discogs
Add. Notes:
Encoder: FLAC
Bitrate: ~1000 kBit/s (VBR)
Size: 558,63 MB
Password: “slam” (without ” “)


Tracklist:

1	Spiel Mit Mir	5:22
2	Bestrafe Mich	3:49
3	Weisses Fleisch	4:35
4	Sehnsucht	4:25
5	Asche Zu Asche	3:24
6	Wilder Wein	5:17
7	Heirate Mich	6:16
8	Du Riechst So Gut	5:24
9	Du Hast	4:27
10	Bück Dich	5:57
11	Engel	5:57
12	Rammstein	5:29
13	Laichzeit	5:14
14	Wollt Ihr Das Bett In Flammen Sehen?	5:52
15	Seemann	6:54

Click to open spoiler
Exact Audio Copy V1.3 from 2. September 2016

EAC extraction logfile from 27. February 2019, 20:08

Rammstein / Live Aus Berlin

Used drive : TSSTcorpCD/DVDW SH-S183A Adapter: 1 ID: 0

Read mode : Secure
Utilize accurate stream : Yes
Defeat audio cache : Yes
Make use of C2 pointers : No

Read offset correction : 6
Overread into Lead-In and Lead-Out : No
Fill up missing offset samples with silence : Yes
Delete leading and trailing silent blocks : No
Null samples used in CRC calculations : Yes
Used interface : Native Win32 interface for Win NT & 2000
Gap handling : Appended to previous track

Used output format : User Defined Encoder
Selected bitrate : 1024 kBit/s
Quality : High
Add ID3 tag : No
Command line compressor : C:\Program Files (x86)\FLAC Frontend\tools\flac.exe
Additional command line options : -8 -V -T “artist=%artist%” -T “title=%title%” -T “album=%albumtitle%” -T “date=%year%” -T “tracknumber=%tracknr%” -T “genre=%genre%” %source%

TOC of the extracted CD

Track | Start | Length | Start sector | End sector
———————————————————
1 | 0:00.00 | 6:00.12 | 0 | 27011
2 | 6:00.12 | 3:49.25 | 27012 | 44211
3 | 9:49.37 | 4:35.70 | 44212 | 64906
4 | 14:25.32 | 4:25.10 | 64907 | 84791
5 | 18:50.42 | 3:24.70 | 84792 | 100161
6 | 22:15.37 | 5:17.10 | 100162 | 123946
7 | 27:32.47 | 6:16.50 | 123947 | 152196
8 | 33:49.22 | 5:24.70 | 152197 | 176566
9 | 39:14.17 | 4:27.38 | 176567 | 196629
10 | 43:41.55 | 5:57.65 | 196630 | 223469
11 | 49:39.45 | 5:57.00 | 223470 | 250244
12 | 55:36.45 | 5:29.70 | 250245 | 274989
13 | 61:06.40 | 5:14.42 | 274990 | 298581
14 | 66:21.07 | 5:52.68 | 298582 | 325049
15 | 72:14.00 | 6:54.25 | 325050 | 356124

Track 1

Filename C:\temp\Rammstein – Live Aus Berlin\01 – Spiel Mit Mir.wav

Pre-gap length 0:00:02.00

Peak level 99.9 %
Extraction speed 5.3 X
Track quality 100.0 %
Test CRC EA2B9208
Copy CRC EA2B9208
Accurately ripped (confidence 11) [0C8DA836] (AR v2)
Copy OK

Track 2

Filename C:\temp\Rammstein – Live Aus Berlin\02 – Bestrafe Mich.wav

Peak level 99.9 %
Extraction speed 5.5 X
Track quality 100.0 %
Test CRC 781B8FF8
Copy CRC 781B8FF8
Accurately ripped (confidence 12) [1D3A10CB] (AR v2)
Copy OK

Track 3

Filename C:\temp\Rammstein – Live Aus Berlin\03 – Weisses Fleisch.wav

Peak level 99.9 %
Extraction speed 6.1 X
Track quality 100.0 %
Test CRC F2C301AA
Copy CRC F2C301AA
Accurately ripped (confidence 12) [BE46AC69] (AR v2)
Copy OK

Track 4

Filename C:\temp\Rammstein – Live Aus Berlin\04 – Sehnsucht.wav

Peak level 99.9 %
Extraction speed 6.5 X
Track quality 100.0 %
Test CRC 2F48677C
Copy CRC 2F48677C
Accurately ripped (confidence 11) [62580B38] (AR v2)
Copy OK

Track 5

Filename C:\temp\Rammstein – Live Aus Berlin\05 – Asche Zu Asche.wav

Peak level 99.9 %
Extraction speed 6.6 X
Track quality 100.0 %
Test CRC C6B62694
Copy CRC C6B62694
Accurately ripped (confidence 12) [ECEEB211] (AR v2)
Copy OK

Track 6

Filename C:\temp\Rammstein – Live Aus Berlin\06 – Wilder Wein.wav

Peak level 91.2 %
Extraction speed 7.3 X
Track quality 100.0 %
Test CRC 2E59F61C
Copy CRC 2E59F61C
Accurately ripped (confidence 12) [1B95FCF1] (AR v2)
Copy OK

Track 7

Filename C:\temp\Rammstein – Live Aus Berlin\07 – Heirate Mich.wav

Peak level 99.9 %
Extraction speed 7.9 X
Track quality 100.0 %
Test CRC DA7AC16F
Copy CRC DA7AC16F
Accurately ripped (confidence 11) [38F51D89] (AR v2)
Copy OK

Track 8

Filename C:\temp\Rammstein – Live Aus Berlin\08 – Du Riechst So Gut.wav

Peak level 99.9 %
Extraction speed 8.2 X
Track quality 100.0 %
Test CRC A1347AE8
Copy CRC A1347AE8
Accurately ripped (confidence 12) [DA2820C5] (AR v2)
Copy OK

Track 9

Filename C:\temp\Rammstein – Live Aus Berlin\09 – Du Hast.wav

Peak level 99.9 %
Extraction speed 8.3 X
Track quality 100.0 %
Test CRC 054E8445
Copy CRC 054E8445
Accurately ripped (confidence 12) [0C1656BC] (AR v2)
Copy OK

Track 10

Filename C:\temp\Rammstein – Live Aus Berlin\10 – Bueck Dich.wav

Peak level 99.9 %
Extraction speed 6.9 X
Track quality 99.9 %
Test CRC F7894919
Copy CRC F7894919
Accurately ripped (confidence 11) [FDD696DB] (AR v2)
Copy OK

Track 11

Filename C:\temp\Rammstein – Live Aus Berlin\11 – Engel.wav

Peak level 99.9 %
Extraction speed 9.3 X
Track quality 100.0 %
Test CRC F74BD5BB
Copy CRC F74BD5BB
Accurately ripped (confidence 11) [C9A96F3A] (AR v2)
Copy OK

Track 12

Filename C:\temp\Rammstein – Live Aus Berlin\12 – Rammstein.wav

Peak level 99.9 %
Extraction speed 9.5 X
Track quality 100.0 %
Test CRC 9C0F5F4B
Copy CRC 9C0F5F4B
Accurately ripped (confidence 11) [14FA6073] (AR v2)
Copy OK

Track 13

Filename C:\temp\Rammstein – Live Aus Berlin\13 – Laichzeit.wav

Peak level 99.9 %
Extraction speed 9.8 X
Track quality 100.0 %
Test CRC 485FC7E2
Copy CRC 485FC7E2
Accurately ripped (confidence 10) [11E4026F] (AR v2)
Copy OK

Track 14

Filename C:\temp\Rammstein – Live Aus Berlin\14 – Wollt Ihr Das Bett In Flammen Sehen.wav

Peak level 99.9 %
Extraction speed 9.2 X
Track quality 99.9 %
Test CRC 5F2A5B2E
Copy CRC 5F2A5B2E
Accurately ripped (confidence 11) [681D22AB] (AR v2)
Copy OK

Track 15

Filename C:\temp\Rammstein – Live Aus Berlin\15 – Seemann.wav

Peak level 99.9 %
Extraction speed 7.4 X
Track quality 99.9 %
Test CRC 5C82BCA7
Copy CRC 5C82BCA7
Accurately ripped (confidence 11) [5B1443F9] (AR v2)
Copy OK

All tracks accurately ripped

No errors occurred

End of status report

—- CUETools DB Plugin V2.1.6

[CTDB TOCID: 7I78Ph1i1V4BB9UFx.yLfxpvrDA-] found
Submit result: 7I78Ph1i1V4BB9UFx.yLfxpvrDA- has been confirmed
Track | CTDB Status
1 | (34/35) Accurately ripped
2 | (34/35) Accurately ripped
3 | (34/35) Accurately ripped
4 | (34/35) Accurately ripped
5 | (34/35) Accurately ripped
6 | (34/35) Accurately ripped
7 | (34/35) Accurately ripped
8 | (34/35) Accurately ripped
9 | (34/35) Accurately ripped
10 | (33/35) Accurately ripped
11 | (31/35) Accurately ripped, or (3/35) differs in 35279 samples @04:31:31-04:31:61
12 | (34/35) Accurately ripped
13 | (34/35) Accurately ripped
14 | (33/35) Accurately ripped
15 | (33/35) Accurately ripped

==== Log checksum 8900581D6FA8CA4CB7057CE6779957F14B3F970C5CC992E587DF2DDB21D48864 ====

REM GENRE Rock
REM DATE 1999
REM DISCID DC128C0F
REM COMMENT “ExactAudioCopy v1.3”
PERFORMER “Rammstein”
TITLE “Live Aus Berlin”
REM COMPOSER “”
FILE “01 – Spiel Mit Mir.wav” WAVE
TRACK 01 AUDIO
TITLE “Spiel Mit Mir”
PERFORMER “Rammstein”
REM COMPOSER “”
INDEX 01 00:00:00
FILE “02 – Bestrafe Mich.wav” WAVE
TRACK 02 AUDIO
TITLE “Bestrafe Mich”
PERFORMER “Rammstein”
REM COMPOSER “”
INDEX 01 00:00:00
FILE “03 – Weisses Fleisch.wav” WAVE
TRACK 03 AUDIO
TITLE “Weisses Fleisch”
PERFORMER “Rammstein”
REM COMPOSER “”
INDEX 01 00:00:00
FILE “04 – Sehnsucht.wav” WAVE
TRACK 04 AUDIO
TITLE “Sehnsucht”
PERFORMER “Rammstein”
REM COMPOSER “”
INDEX 01 00:00:00
FILE “05 – Asche Zu Asche.wav” WAVE
TRACK 05 AUDIO
TITLE “Asche Zu Asche”
PERFORMER “Rammstein”
REM COMPOSER “”
INDEX 01 00:00:00
FILE “06 – Wilder Wein.wav” WAVE
TRACK 06 AUDIO
TITLE “Wilder Wein”
PERFORMER “Rammstein”
REM COMPOSER “”
INDEX 01 00:00:00
FILE “07 – Heirate Mich.wav” WAVE
TRACK 07 AUDIO
TITLE “Heirate Mich”
PERFORMER “Rammstein”
REM COMPOSER “”
INDEX 01 00:00:00
FILE “08 – Du Riechst So Gut.wav” WAVE
TRACK 08 AUDIO
TITLE “Du Riechst So Gut”
PERFORMER “Rammstein”
REM COMPOSER “”
INDEX 01 00:00:00
FILE “09 – Du Hast.wav” WAVE
TRACK 09 AUDIO
TITLE “Du Hast”
PERFORMER “Rammstein”
REM COMPOSER “”
INDEX 01 00:00:00
FILE “10 – Bueck Dich.wav” WAVE
TRACK 10 AUDIO
TITLE “Bueck Dich”
PERFORMER “Rammstein”
REM COMPOSER “”
INDEX 01 00:00:00
FILE “11 – Engel.wav” WAVE
TRACK 11 AUDIO
TITLE “Engel”
PERFORMER “Rammstein”
REM COMPOSER “”
INDEX 01 00:00:00
FILE “12 – Rammstein.wav” WAVE
TRACK 12 AUDIO
TITLE “Rammstein”
PERFORMER “Rammstein”
REM COMPOSER “”
INDEX 01 00:00:00
FILE “13 – Laichzeit.wav” WAVE
TRACK 13 AUDIO
TITLE “Laichzeit”
PERFORMER “Rammstein”
REM COMPOSER “”
INDEX 01 00:00:00
FILE “14 – Wollt Ihr Das Bett In Flammen Sehen.wav” WAVE
TRACK 14 AUDIO
TITLE “Wollt Ihr Das Bett In Flammen Sehen?”
PERFORMER “Rammstein”
REM COMPOSER “”
INDEX 01 00:00:00
FILE “15 – Seemann.wav” WAVE
TRACK 15 AUDIO
TITLE “Seemann”
PERFORMER “Rammstein”
REM COMPOSER “”
INDEX 01 00:00:00

Leave a Reply

Your email address will not be published. Required fields are marked *

This site uses Akismet to reduce spam. Learn how your comment data is processed.