Rammstein – Live aus Berlin (Limited Edition)




Artist: Rammstein
Year: 1999
Genre: Metal
Notes: Discogs
Add. Notes: Limited Edition
Cover incl.: Yes
Encoder: FLAC
Bitrate: ~1000 kBit/s (44.1 kHz/16 Bit/s)
Log & Cue incl.: Yes
Size: 729,94 MB
Password: “slam” (without ” “)


All Downloads/Hosters are compatible

Download 1
Turbobit.net
Rapidgator.net
UploadEver.com
KatFile.com
UsersDrive.com
Download 2
Turbobit.net
Rapidgator.net
UploadEver.com
KatFile.com
UsersDrive.com
Download 3
Turbobit.net
Rapidgator.net
UploadEver.com
KatFile.com
UsersDrive.com

Tracklist:

1-1 - Spiel Mit Mir - 6:09
1-2 - Herzeleid - 3:57
1-3 - Bestrafe Mich - 3:48
1-4 - Weisses Fleisch - 4:36
1-5 - Sehnsucht - 4:25
1-6 - Asche Zu Asche - 3:24
1-7 - Wilder Wein - 5:57
1-8 - Klavier - 4:50
1-9 - Heirate Mich - 7:47
1-10 - Du Riechst So Gut - 5:25
1-11 - Du Hast - 4:36
1-12 - Bück Dich - 6:03
2-1 - Engel - 6:31
2-2 - Rammstein - 5:42
2-3 - Tier - 3:42
2-4 - Laichzeit - 5:13
2-5 - Wollt Ihr Das Bett In Flammen Sehen? - 6:15
2-6 - Seemann - 9:56

EAC-Log, CUE-Sheed & NFO:

Click to open spoiler
Exact Audio Copy V0.99 prebeta 5 from 4. May 2009

EAC Auslese-Logdatei vom 6. Februar 2010, 19:15

Rammstein / Live Aus Berlin (CD1)

Benutztes Laufwerk : HL-DT-STDVDRAM GSA-H42N Adapter: 0 ID: 0

Lesemodus : Sicher
Benutze Accurate Stream : Ja
Audio Puffer abgeschaltet : Ja
Benutze C2 Fehlerinformationen : Nein

Leseoffset Korrektur : 667
Überlesen in das Lead-In und Lead-Out : Nein
Fülle fehlende Offsetsample mit Stille auf : Ja
Lösche führende und nachfolgende stille Blöcke : Nein
Null Samples gehen in CRC Berechnungen ein : Ja
Benutzte Schnittstelle : Installierte externe ASPI Schnittstelle

Benutztes Ausgabeformat : Interne WAV Routinen
Sampleformat : 44.100 Hz; 16 Bit; Stereo

TOC der ausgelesenen CD

Track | Start | Länge | Startsektor | Endsektor
——————————————————-
1 | 0:58.58 | 6:09.00 | 4408 | 32082
2 | 7:07.58 | 3:57.67 | 32083 | 49924
3 | 11:05.50 | 3:48.65 | 49925 | 67089
4 | 14:54.40 | 4:36.33 | 67090 | 87822
5 | 19:30.73 | 4:25.10 | 87823 | 107707
6 | 23:56.08 | 3:24.67 | 107708 | 123074
7 | 27:21.00 | 5:57.00 | 123075 | 149849
8 | 33:18.00 | 4:50.00 | 149850 | 171599
9 | 38:08.00 | 7:47.10 | 171600 | 206634
10 | 45:55.10 | 5:25.43 | 206635 | 231052
11 | 51:20.53 | 4:27.00 | 231053 | 251077
12 | 55:47.53 | 6:00.17 | 251078 | 278094

Bereichsstatus und Fehler

Gewählter Bereich

Dateiname K:\Rammstein – Discography\Albums\1999 – Live aus Berlin (Limited Edition)\Rammstein – Live Aus Berlin (CD1).wav

Spitzenpegel 99.9 %
Bereichsqualität 100.0 %
Test CRC 63F055B4
Kopie CRC 63F055B4
Kopie OK

Keine Fehler aufgetreten

AccurateRip Übersicht

Track 1 akkurat gelesen (Zuversicht 38) [C080F577]
Track 2 akkurat gelesen (Zuversicht 39) [B9515BD6]
Track 3 akkurat gelesen (Zuversicht 38) [879D5FBC]
Track 4 akkurat gelesen (Zuversicht 39) [9C0F2A4F]
Track 5 akkurat gelesen (Zuversicht 38) [0C113870]
Track 6 akkurat gelesen (Zuversicht 39) [31E8EE11]
Track 7 akkurat gelesen (Zuversicht 39) [8FB47E78]
Track 8 akkurat gelesen (Zuversicht 38) [AD122DB5]
Track 9 akkurat gelesen (Zuversicht 38) [C72598E0]
Track 10 akkurat gelesen (Zuversicht 39) [21E88B24]
Track 11 akkurat gelesen (Zuversicht 38) [72165225]
Track 12 akkurat gelesen (Zuversicht 38) [C688E512]

Alle Tracks wurden akkurat gelesen

Ende des Statusreports

Exact Audio Copy V0.99 prebeta 5 from 4. May 2009

EAC Auslese-Logdatei vom 6. Februar 2010, 20:53

Rammstein / Live Aus Berlin (CD2)

Benutztes Laufwerk : HL-DT-STDVDRAM GSA-H42N Adapter: 0 ID: 0

Lesemodus : Sicher
Benutze Accurate Stream : Ja
Audio Puffer abgeschaltet : Ja
Benutze C2 Fehlerinformationen : Nein

Leseoffset Korrektur : 667
Überlesen in das Lead-In und Lead-Out : Nein
Fülle fehlende Offsetsample mit Stille auf : Ja
Lösche führende und nachfolgende stille Blöcke : Nein
Null Samples gehen in CRC Berechnungen ein : Ja
Benutzte Schnittstelle : Installierte externe ASPI Schnittstelle

Benutztes Ausgabeformat : Interne WAV Routinen
Sampleformat : 44.100 Hz; 16 Bit; Stereo

TOC der ausgelesenen CD

Track | Start | Länge | Startsektor | Endsektor
——————————————————-
1 | 0:00.00 | 6:43.43 | 0 | 30267
2 | 6:43.43 | 5:42.37 | 30268 | 55954
3 | 12:26.05 | 3:42.40 | 55955 | 72644
4 | 16:08.45 | 5:13.55 | 72645 | 96174
5 | 21:22.25 | 6:15.15 | 96175 | 124314
6 | 27:37.40 | 9:56.55 | 124315 | 169069
7 | 40:06.20 | 23:34.01 | 180470 | 286520

Bereichsstatus und Fehler

Gewählter Bereich

Dateiname K:\Rammstein – Discography\Albums\1999 – Live aus Berlin (Limited Edition)\Rammstein – Live Aus Berlin (CD2).wav

Spitzenpegel 99.9 %
Bereichsqualität 100.0 %
Test CRC 9BBD9F96
Kopie CRC 9BBD9F96
Kopie OK

Keine Fehler aufgetreten

AccurateRip Übersicht

Track 1 akkurat gelesen (Zuversicht 33) [0F79CCA9]
Track 2 akkurat gelesen (Zuversicht 34) [4DFCF7FE]
Track 3 akkurat gelesen (Zuversicht 34) [422BBA2F]
Track 4 akkurat gelesen (Zuversicht 35) [A7CE95BD]
Track 5 akkurat gelesen (Zuversicht 34) [B5BF2992]
Track 6 akkurat gelesen (Zuversicht 34) [01FAC900]

Alle Tracks wurden akkurat gelesen

Ende des Statusreports

REM GENRE NDH
REM DATE 1999
REM DISCID AC0E410C
REM COMMENT “ExactAudioCopy v0.99pb5”
PERFORMER “Rammstein”
TITLE “Live Aus Berlin (CD1)”
FILE “Rammstein – Live Aus Berlin (CD1).flac” WAVE
TRACK 01 AUDIO
TITLE “Spiel Mit Mir”
PERFORMER “Rammstein”
INDEX 00 00:00:00
INDEX 01 00:58:58
TRACK 02 AUDIO
TITLE “Herzeleid”
PERFORMER “Rammstein”
INDEX 01 07:07:58
TRACK 03 AUDIO
TITLE “Bestrafe Mich”
PERFORMER “Rammstein”
INDEX 01 11:05:50
TRACK 04 AUDIO
TITLE “Weisses Fleisch”
PERFORMER “Rammstein”
INDEX 01 14:54:40
TRACK 05 AUDIO
TITLE “Sehnsucht”
PERFORMER “Rammstein”
INDEX 01 19:30:73
TRACK 06 AUDIO
TITLE “Asche Zu Asche”
PERFORMER “Rammstein”
INDEX 01 23:56:08
TRACK 07 AUDIO
TITLE “Wilder Wein”
PERFORMER “Rammstein”
INDEX 01 27:21:00
TRACK 08 AUDIO
TITLE “Klavier”
PERFORMER “Rammstein”
INDEX 01 33:18:00
TRACK 09 AUDIO
TITLE “Heirate Mich”
PERFORMER “Rammstein”
INDEX 01 38:08:00
TRACK 10 AUDIO
TITLE “Du Riechst So Gut”
PERFORMER “Rammstein”
INDEX 01 45:55:10
TRACK 11 AUDIO
TITLE “Du Hast”
PERFORMER “Rammstein”
INDEX 01 51:20:53
TRACK 12 AUDIO
TITLE “Bück Dich”
PERFORMER “Rammstein”
INDEX 01 55:47:53

REM GENRE “Industrial Metal”
REM DATE 1999
REM DISCID 600EEC07
REM COMMENT “ExactAudioCopy v0.99pb5”
PERFORMER “Rammstein”
TITLE “Live Aus Berlin (CD2)”
FILE “Rammstein – Live Aus Berlin (CD2).flac” WAVE
TRACK 01 AUDIO
TITLE “Engel”
PERFORMER “Rammstein”
INDEX 01 00:00:00
TRACK 02 AUDIO
TITLE “Rammstein”
PERFORMER “Rammstein”
INDEX 01 06:43:43
TRACK 03 AUDIO
TITLE “Tier”
PERFORMER “Rammstein”
INDEX 01 12:26:05
TRACK 04 AUDIO
TITLE “Laichzeit”
PERFORMER “Rammstein”
INDEX 01 16:08:45
TRACK 05 AUDIO
TITLE “Wollt Ihr Das Bett In Flammen Sehen?”
PERFORMER “Rammstein”
INDEX 01 21:22:25
TRACK 06 AUDIO
TITLE “Seemann”
PERFORMER “Rammstein”
INDEX 01 27:37:40


Leave a Reply

Your email address will not be published. Required fields are marked *

This site uses Akismet to reduce spam. Learn how your comment data is processed.