Rammstein – Liebe Ist Für Alle Da (Remastered Japanese Edition)




No Cover available

Artist: Rammstein
Year: 2009
Genre: Metal
Notes: Discogs
Add. Notes: Remastered Japanese Edition
Watch Songs on: YouTube
Cover incl.: Yes
Encoder: FLAC
Bitrate: ~900 kBit/s (44.1 kHz/16 Bit/s)
Log & Cue incl.: Yes/Yes
Size: 558 MB
Password: “slam” (without ” “)


All Downloads/Hosters are compatible

Download 1
KatFile.com
Turbobit.net
Rapidgator.net
FileFactory.com
Download 2
KatFile.com
Turbobit.net
Rapidgator.net
FileFactory.com

Tracklist:

1-1 Rammlied 5:19
1-2 Ich Tu Dir Weh 5:02
1-3 Waidmanns Heil 3:33
1-4 Haifisch 3:45
1-5 B******** 4:14
1-6 Frühling In Paris 4:45
1-7 Wiener Blut 3:52
1-8 Pussy 3:59
1-9 Liebe Ist Für Alle Da 3:28
1-10 Mehr 4:11
1-11 Roter Sand 3:59

2-1 Führe Mich 4:33
2-2 Donaukinder 5:18
2-3 Halt 4:21
2-4 Roter Sand (Orchester Version) 4:08
2-5 Liese 3:56

EAC-Log, CUE-Sheed & NFO:

Click to open spoiler
Exact Audio Copy V0.99 prebeta 5 from 4. May 2009

EAC extraction logfile from 5. December 2010, 1:06

Rammstein / Liebe Ist fur Alle Da SE CD1

Used drive : TSSTcorpCDDVDW TS-L632H Adapter: 1 ID: 0

Read mode : Secure
Utilize accurate stream : Yes
Defeat audio cache : Yes
Make use of C2 pointers : No

Read offset correction : 6
Overread into Lead-In and Lead-Out : No
Fill up missing offset samples with silence : Yes
Delete leading and trailing silent blocks : No
Null samples used in CRC calculations : Yes
Used interface : Native Win32 interface for Win NT & 2000
Gap handling : Appended to previous track

Used output format : User Defined Encoder
Selected bitrate : 128 kBit/s
Quality : High
Add ID3 tag : No
Command line compressor : C:\Program Files\Exact Audio Copy\Flac\flac.exe
Additional command line options : -8 -V -T “ARTIST=%a” -T “TITLE=%t” -T “ALBUM=%g” -T “DATE=%y” -T “TRACKNUMBER=%n” -T “GENRE=%m” -T “COMMENT=EAC FLAC -8” %s

TOC of the extracted CD

Track | Start | Length | Start sector | End sector
———————————————————
1 | 0:00.00 | 5:18.50 | 0 | 23899
2 | 5:18.50 | 5:01.64 | 23900 | 46538
3 | 10:20.39 | 3:32.60 | 46539 | 62498
4 | 13:53.24 | 3:44.68 | 62499 | 79366
5 | 17:38.17 | 4:14.01 | 79367 | 98417
6 | 21:52.18 | 4:44.69 | 98418 | 119786
7 | 26:37.12 | 3:52.09 | 119787 | 137195
8 | 30:29.21 | 3:59.06 | 137196 | 155126
9 | 34:28.27 | 3:28.23 | 155127 | 170749
10 | 37:56.50 | 4:10.39 | 170750 | 189538
11 | 42:07.14 | 3:59.00 | 189539 | 207463

Track 1

Filename H:\Rammstein Japan\Rammstein (Japan press) [FLAC]\2009 Liebe Ist fur Alle Da [Japan SHM-CD]\CD1\01. Rammstein – Rammlied.wav

Pre-gap length 0:00:02.00

Peak level 99.8 %
Track quality 100.0 %
Test CRC 410A4847
Copy CRC 410A4847
Accurately ripped (confidence 10) [C30141B6]
Copy OK

Track 2

Filename H:\Rammstein Japan\Rammstein (Japan press) [FLAC]\2009 Liebe Ist fur Alle Da [Japan SHM-CD]\CD1\02. Rammstein – Ich Tu Dir Weh.wav

Peak level 99.9 %
Track quality 99.9 %
Test CRC 4082A9E3
Copy CRC 4082A9E3
Accurately ripped (confidence 10) [93878CD5]
Copy OK

Track 3

Filename H:\Rammstein Japan\Rammstein (Japan press) [FLAC]\2009 Liebe Ist fur Alle Da [Japan SHM-CD]\CD1\03. Rammstein – Waidmanns Heil.wav

Peak level 99.9 %
Track quality 100.0 %
Test CRC B1093A58
Copy CRC B1093A58
Accurately ripped (confidence 10) [1535C951]
Copy OK

Track 4

Filename H:\Rammstein Japan\Rammstein (Japan press) [FLAC]\2009 Liebe Ist fur Alle Da [Japan SHM-CD]\CD1\04. Rammstein – Haifisch.wav

Peak level 99.8 %
Track quality 100.0 %
Test CRC F9A24205
Copy CRC F9A24205
Accurately ripped (confidence 10) [BBBAF658]
Copy OK

Track 5

Filename H:\Rammstein Japan\Rammstein (Japan press) [FLAC]\2009 Liebe Ist fur Alle Da [Japan SHM-CD]\CD1\05. Rammstein – Bxxxxxxxx.wav

Peak level 99.9 %
Track quality 99.9 %
Test CRC 863DB456
Copy CRC 863DB456
Accurately ripped (confidence 10) [73533714]
Copy OK

Track 6

Filename H:\Rammstein Japan\Rammstein (Japan press) [FLAC]\2009 Liebe Ist fur Alle Da [Japan SHM-CD]\CD1\06. Rammstein – Fruhling in Paris.wav

Peak level 99.8 %
Track quality 99.9 %
Test CRC CB918E18
Copy CRC CB918E18
Accurately ripped (confidence 10) [4B58CD27]
Copy OK

Track 7

Filename H:\Rammstein Japan\Rammstein (Japan press) [FLAC]\2009 Liebe Ist fur Alle Da [Japan SHM-CD]\CD1\07. Rammstein – Wiener Blut.wav

Peak level 99.9 %
Track quality 99.9 %
Test CRC FCACB04E
Copy CRC FCACB04E
Accurately ripped (confidence 10) [648AD871]
Copy OK

Track 8

Filename H:\Rammstein Japan\Rammstein (Japan press) [FLAC]\2009 Liebe Ist fur Alle Da [Japan SHM-CD]\CD1\08. Rammstein – Pussy.wav

Peak level 99.8 %
Track quality 99.9 %
Test CRC 21FFFE7B
Copy CRC 21FFFE7B
Accurately ripped (confidence 10) [467B94E0]
Copy OK

Track 9

Filename H:\Rammstein Japan\Rammstein (Japan press) [FLAC]\2009 Liebe Ist fur Alle Da [Japan SHM-CD]\CD1\09. Rammstein – Liebe Ist fur Alle Da.wav

Peak level 99.8 %
Track quality 100.0 %
Test CRC B051B2C3
Copy CRC B051B2C3
Accurately ripped (confidence 10) [C2AB1679]
Copy OK

Track 10

Filename H:\Rammstein Japan\Rammstein (Japan press) [FLAC]\2009 Liebe Ist fur Alle Da [Japan SHM-CD]\CD1\10. Rammstein – Mehr.wav

Pre-gap length 0:00:02.65

Peak level 99.8 %
Track quality 100.0 %
Test CRC 7AA841C0
Copy CRC 7AA841C0
Accurately ripped (confidence 10) [01303D93]
Copy OK

Track 11

Filename H:\Rammstein Japan\Rammstein (Japan press) [FLAC]\2009 Liebe Ist fur Alle Da [Japan SHM-CD]\CD1\11. Rammstein – Roter Sand.wav

Pre-gap length 0:00:02.20

Peak level 99.9 %
Track quality 100.0 %
Test CRC 968CFE4C
Copy CRC 968CFE4C
Accurately ripped (confidence 10) [740CB073]
Copy OK

All tracks accurately ripped

No errors occurred

End of status report

Exact Audio Copy V0.99 prebeta 5 from 4. May 2009

EAC extraction logfile from 5. December 2010, 1:23

Rammstein / Liebe Ist fur Alle Da SE CD2

Used drive : TSSTcorpCDDVDW TS-L632H Adapter: 1 ID: 0

Read mode : Secure
Utilize accurate stream : Yes
Defeat audio cache : Yes
Make use of C2 pointers : No

Read offset correction : 6
Overread into Lead-In and Lead-Out : No
Fill up missing offset samples with silence : Yes
Delete leading and trailing silent blocks : No
Null samples used in CRC calculations : Yes
Used interface : Native Win32 interface for Win NT & 2000
Gap handling : Appended to previous track

Used output format : User Defined Encoder
Selected bitrate : 128 kBit/s
Quality : High
Add ID3 tag : No
Command line compressor : C:\Program Files\Exact Audio Copy\Flac\flac.exe
Additional command line options : -8 -V -T “ARTIST=%a” -T “TITLE=%t” -T “ALBUM=%g” -T “DATE=%y” -T “TRACKNUMBER=%n” -T “GENRE=%m” -T “COMMENT=EAC FLAC -8” %s

TOC of the extracted CD

Track | Start | Length | Start sector | End sector
———————————————————
1 | 0:00.00 | 4:33.14 | 0 | 20488
2 | 4:33.14 | 5:17.73 | 20489 | 44336
3 | 9:51.12 | 4:20.70 | 44337 | 63906
4 | 14:12.07 | 4:07.58 | 63907 | 82489
5 | 18:19.65 | 3:55.43 | 82490 | 100157

Track 1

Filename H:\Rammstein Japan\Rammstein (Japan press) [FLAC]\2009 Liebe Ist fur Alle Da [Japan SHM-CD]\CD2\01. Rammstein – Fuhre Mich.wav

Pre-gap length 0:00:02.00

Peak level 99.8 %
Track quality 100.0 %
Test CRC 4E9BAFA9
Copy CRC 4E9BAFA9
Accurately ripped (confidence 200) [672C8E53]
Copy OK

Track 2

Filename H:\Rammstein Japan\Rammstein (Japan press) [FLAC]\2009 Liebe Ist fur Alle Da [Japan SHM-CD]\CD2\02. Rammstein – Donaukinder.wav

Peak level 99.8 %
Track quality 100.0 %
Test CRC D371DECD
Copy CRC D371DECD
Accurately ripped (confidence 200) [A04BB3F1]
Copy OK

Track 3

Filename H:\Rammstein Japan\Rammstein (Japan press) [FLAC]\2009 Liebe Ist fur Alle Da [Japan SHM-CD]\CD2\03. Rammstein – Halt.wav

Peak level 99.8 %
Track quality 100.0 %
Test CRC 1DEC38A9
Copy CRC 1DEC38A9
Accurately ripped (confidence 200) [9BC4F2AB]
Copy OK

Track 4

Filename H:\Rammstein Japan\Rammstein (Japan press) [FLAC]\2009 Liebe Ist fur Alle Da [Japan SHM-CD]\CD2\04. Rammstein – Roter Sand (Orchesterlied Version).wav

Peak level 99.8 %
Track quality 100.0 %
Test CRC D17BC559
Copy CRC D17BC559
Accurately ripped (confidence 200) [E2BEE233]
Copy OK

Track 5

Filename H:\Rammstein Japan\Rammstein (Japan press) [FLAC]\2009 Liebe Ist fur Alle Da [Japan SHM-CD]\CD2\05. Rammstein – Liese.wav

Pre-gap length 0:00:02.45

Peak level 99.9 %
Track quality 100.0 %
Test CRC DF8204FA
Copy CRC DF8204FA
Accurately ripped (confidence 200) [A61D634C]
Copy OK

All tracks accurately ripped

No errors occurred

End of status report

REM GENRE Industrial
REM DATE 2009
REM DISCID 840ACE0B
REM COMMENT “ExactAudioCopy v0.99pb5”
PERFORMER “Rammstein”
TITLE “Liebe Ist fur Alle Da SE CD1”
FILE “01. Rammstein – Rammlied.wav” WAVE
TRACK 01 AUDIO
TITLE “Rammlied”
PERFORMER “Rammstein”
INDEX 01 00:00:00
FILE “02. Rammstein – Ich Tu Dir Weh.wav” WAVE
TRACK 02 AUDIO
TITLE “Ich Tu Dir Weh”
PERFORMER “Rammstein”
INDEX 01 00:00:00
FILE “03. Rammstein – Waidmanns Heil.wav” WAVE
TRACK 03 AUDIO
TITLE “Waidmanns Heil”
PERFORMER “Rammstein”
INDEX 01 00:00:00
FILE “04. Rammstein – Haifisch.wav” WAVE
TRACK 04 AUDIO
TITLE “Haifisch”
PERFORMER “Rammstein”
INDEX 01 00:00:00
FILE “05. Rammstein – Bxxxxxxxx.wav” WAVE
TRACK 05 AUDIO
TITLE “B********”
PERFORMER “Rammstein”
INDEX 01 00:00:00
FILE “06. Rammstein – Fruhling in Paris.wav” WAVE
TRACK 06 AUDIO
TITLE “Fruhling in Paris”
PERFORMER “Rammstein”
INDEX 01 00:00:00
FILE “07. Rammstein – Wiener Blut.wav” WAVE
TRACK 07 AUDIO
TITLE “Wiener Blut”
PERFORMER “Rammstein”
INDEX 01 00:00:00
FILE “08. Rammstein – Pussy.wav” WAVE
TRACK 08 AUDIO
TITLE “Pussy”
PERFORMER “Rammstein”
INDEX 01 00:00:00
FILE “09. Rammstein – Liebe Ist fur Alle Da.wav” WAVE
TRACK 09 AUDIO
TITLE “Liebe Ist fur Alle Da”
PERFORMER “Rammstein”
INDEX 01 00:00:00
TRACK 10 AUDIO
TITLE “Mehr”
PERFORMER “Rammstein”
INDEX 00 03:25:33
FILE “10. Rammstein – Mehr.wav” WAVE
INDEX 01 00:00:00
TRACK 11 AUDIO
TITLE “Roter Sand”
PERFORMER “Rammstein”
INDEX 00 04:08:19
FILE “11. Rammstein – Roter Sand.wav” WAVE
INDEX 01 00:00:00

REM GENRE Industrial
REM DATE 2009
REM DISCID 35053705
REM COMMENT “ExactAudioCopy v0.99pb5”
PERFORMER “Rammstein”
TITLE “Liebe Ist fur Alle Da SE CD2”
FILE “01. Rammstein – Fuhre Mich.wav” WAVE
TRACK 01 AUDIO
TITLE “Fuhre Mich”
PERFORMER “Rammstein”
INDEX 01 00:00:00
FILE “02. Rammstein – Donaukinder.wav” WAVE
TRACK 02 AUDIO
TITLE “Donaukinder”
PERFORMER “Rammstein”
INDEX 01 00:00:00
FILE “03. Rammstein – Halt.wav” WAVE
TRACK 03 AUDIO
TITLE “Halt”
PERFORMER “Rammstein”
INDEX 01 00:00:00
FILE “04. Rammstein – Roter Sand (Orchesterlied Version).wav” WAVE
TRACK 04 AUDIO
TITLE “Roter Sand (Orchesterlied Version)”
PERFORMER “Rammstein”
INDEX 01 00:00:00
TRACK 05 AUDIO
TITLE “Liese”
PERFORMER “Rammstein”
INDEX 00 04:05:13
FILE “05. Rammstein – Liese.wav” WAVE
INDEX 01 00:00:00


0

Publication author

offline 7 days

Chaos

3
Comments: 4Publics: 3565Registration: 02-02-2019
Spread the Download

Leave a Reply

Your email address will not be published. Required fields are marked *

Enter the text from the image below
 

This site uses Akismet to reduce spam. Learn how your comment data is processed.