Rammstein – Liebe Ist Für Alle Da (Limited Edition)




Artist: Rammstein
Year: 2009
Genre: Metal
Notes: Discogs
Add. Notes: Limited Edition
Cover incl.: Yes
Encoder: FLAC
Bitrate: ~5500 kBit/s (192 kHz/24 Bit/s)
Log & Cue incl.: Yes
Size: 3115,32 MB
Password: “slam” (without ” “)


All Downloads/Hosters are compatible

Download 1
Turbobit.net
Rapidgator.net
UploadEver.com
UsersDrive.com
Download 2
Turbobit.net
Rapidgator.net
UploadEver.com
UsersDrive.com
Download 3
Turbobit.net
Rapidgator.net
UploadEver.com
UsersDrive.com

Tracklist:

A1 - Rammlied - 5:19
A2 - Ich Tu Dir Weh - 5:02
A3 - Waidmanns Heil - 3:33
B1 - Haifisch - 3:45
B2 - B******** - 4:15
B3 - Frühling In Paris - 4:45
C1 - Wiener Blut - 3:53
C2 - Pussy - 4:00
C3 - Liebe Ist Für Alle Da - 3:26
D1 - Mehr - 4:09
D2 - Roter Sand - 3:59

EAC-Log, CUE-Sheed & NFO:

Click to open spoiler
REM DATE 2009
REM COMMENT 2721463
PERFORMER “Rammstein”
TITLE “Liebe Ist Fur Alle Da”
FILE “Liebe Ist Fur Alle Da.flac” WAVE
TRACK 01 AUDIO
TITLE “Rammlied”
INDEX 01 00:00:00
TRACK 02 AUDIO
TITLE “Ich Tu Dir Weh”
INDEX 01 05:18:50
TRACK 03 AUDIO
TITLE “Waidmanns Heil”
INDEX 01 10:23:19
TRACK 04 AUDIO
TITLE “Haifisch”
INDEX 01 13:58:54
TRACK 05 AUDIO
TITLE “B********”
INDEX 01 17:41:47
TRACK 06 AUDIO
TITLE “Fruehling in Paris”
INDEX 01 21:55:18
TRACK 07 AUDIO
TITLE “Wiener Blut”
INDEX 01 26:41:32
TRACK 08 AUDIO
TITLE “Pussy”
INDEX 01 30:33:21
TRACK 09 AUDIO
TITLE “Liebe Ist Fur Alle Da”
INDEX 01 34:32:27
TRACK 10 AUDIO
TITLE “Mehr”
INDEX 01 38:01:20
TRACK 11 AUDIO
TITLE “Roter Sand”
INDEX 01 42:11:14

Leave a Reply

Your email address will not be published. Required fields are marked *

Enter the text from the image below
 

This site uses Akismet to reduce spam. Learn how your comment data is processed.