Rammstein – Herzeleid




Artist: Rammstein
Year: 1995
Genre: Metal
Notes: Discogs
Add. Notes:
Cover incl.: Yes
Encoder: FLAC
Bitrate: ~1000 kBit/s (44.1 kHz/16 Bit/s)
Log & Cue incl.: Yes
Size: 478,9 MB
Password: “slam” (without ” “)


All Downloads/Hosters are compatible

Download 1
Turbobit.net
Rapidgator.net
KatFile.com
UploadRar.com
Download 2
Turbobit.net
Rapidgator.net
KatFile.com
UploadRar.com
Download 3
Turbobit.net
Rapidgator.net
KatFile.com
UploadRar.com

Tracklist:

1 - Wollt Ihr Das Bett In Flammen Sehen - 5:17
2 - Der Meister - 4:08
3 - Weißes Fleisch - 3:35
4 - Asche Zu Asche - 3:51
5 - Seemann - 4:48
6 - Du Riechst So Gut - 4:49
7 - Das Alte Leid - 5:44
8 - Heirate Mich - 4:44
9 - Herzeleid - 3:41
10 - Laichzeit - 4:20
11 - Rammstein - 4:25

EAC-Log, CUE-Sheed & NFO:

Click to open spoiler
Exact Audio Copy V0.99 prebeta 5 from 4. May 2009

EAC Auslese-Logdatei vom 5. Februar 2010, 16:28

Rammstein / Herzeleid

Benutztes Laufwerk : HL-DT-STDVD-ROM GDR-H30N Adapter: 0 ID: 1

Lesemodus : Sicher
Benutze Accurate Stream : Ja
Audio Puffer abgeschaltet : Ja
Benutze C2 Fehlerinformationen : Nein

Leseoffset Korrektur : 6
Überlesen in das Lead-In und Lead-Out : Nein
Fülle fehlende Offsetsample mit Stille auf : Ja
Lösche führende und nachfolgende stille Blöcke : Nein
Null Samples gehen in CRC Berechnungen ein : Ja
Benutzte Schnittstelle : Installierte externe ASPI Schnittstelle

Benutztes Ausgabeformat : Interne WAV Routinen
Sampleformat : 44.100 Hz; 16 Bit; Stereo

TOC der ausgelesenen CD

Track | Start | Länge | Startsektor | Endsektor
——————————————————-
1 | 0:00.32 | 5:17.25 | 32 | 23831
2 | 5:17.57 | 4:10.55 | 23832 | 42636
3 | 9:28.37 | 3:35.63 | 42637 | 58824
4 | 13:04.25 | 3:51.55 | 58825 | 76204
5 | 16:56.05 | 4:48.12 | 76205 | 97816
6 | 21:44.17 | 4:49.20 | 97817 | 119511
7 | 26:33.37 | 5:44.38 | 119512 | 145349
8 | 32:18.00 | 4:44.50 | 145350 | 166699
9 | 37:02.50 | 3:43.27 | 166700 | 183451
10 | 40:46.02 | 4:22.58 | 183452 | 203159
11 | 45:08.60 | 4:25.02 | 203160 | 223036

Bereichsstatus und Fehler

Gewählter Bereich

Dateiname K:\Rammstein – Discography\Albums\1995 – Herzeleid\Rammstein – Herzeleid.wav

Spitzenpegel 100.0 %
Bereichsqualität 100.0 %
Kopie CRC 82399B39
Kopie OK

Keine Fehler aufgetreten

AccurateRip Übersicht

Track 1 akkurat gelesen (Zuversicht 154) [3C683345]
Track 2 akkurat gelesen (Zuversicht 151) [44557E7E]
Track 3 akkurat gelesen (Zuversicht 152) [2EBE022D]
Track 4 akkurat gelesen (Zuversicht 148) [1FF0F054]
Track 5 akkurat gelesen (Zuversicht 153) [F6FE038E]
Track 6 akkurat gelesen (Zuversicht 151) [7056A868]
Track 7 akkurat gelesen (Zuversicht 149) [2B9E2639]
Track 8 akkurat gelesen (Zuversicht 151) [B5553534]
Track 9 akkurat gelesen (Zuversicht 149) [EDABD429]
Track 10 akkurat gelesen (Zuversicht 150) [132C73D2]
Track 11 akkurat gelesen (Zuversicht 150) [25749F53]

Alle Tracks wurden akkurat gelesen

Ende des Statusreports

REM GENRE Metal
REM DATE 1995
REM DISCID 8C0B9D0B
REM COMMENT “ExactAudioCopy v0.99pb5”
PERFORMER “Rammstein”
TITLE “Herzeleid”
FILE “Rammstein – Herzeleid.flac” WAVE
TRACK 01 AUDIO
TITLE “Wollt Ihr Das Bett In Flammen Sehen”
PERFORMER “Rammstein”
INDEX 00 00:00:00
INDEX 01 00:00:32
TRACK 02 AUDIO
TITLE “Der Meister”
PERFORMER “Rammstein”
INDEX 00 05:17:56
INDEX 01 05:17:57
TRACK 03 AUDIO
TITLE “Weißes Fleisch”
PERFORMER “Rammstein”
INDEX 00 09:26:14
INDEX 01 09:28:37
TRACK 04 AUDIO
TITLE “Asche Zu Asche”
PERFORMER “Rammstein”
INDEX 00 13:04:24
INDEX 01 13:04:25
TRACK 05 AUDIO
TITLE “Seemann”
PERFORMER “Rammstein”
INDEX 00 16:56:04
INDEX 01 16:56:05
TRACK 06 AUDIO
TITLE “Du Riechst So Gut”
PERFORMER “Rammstein”
INDEX 00 21:44:16
INDEX 01 21:44:17
TRACK 07 AUDIO
TITLE “Das Alte Leid”
PERFORMER “Rammstein”
INDEX 00 26:33:36
INDEX 01 26:33:37
TRACK 08 AUDIO
TITLE “Heirate Mich”
PERFORMER “Rammstein”
INDEX 00 32:17:74
INDEX 01 32:18:00
TRACK 09 AUDIO
TITLE “Herzeleid”
PERFORMER “Rammstein”
INDEX 00 37:02:49
INDEX 01 37:02:50
TRACK 10 AUDIO
TITLE “Laichzeit”
PERFORMER “Rammstein”
INDEX 00 40:44:46
INDEX 01 40:46:02
TRACK 11 AUDIO
TITLE “Rammstein”
PERFORMER “Rammstein”
INDEX 00 45:06:11
INDEX 01 45:08:60


Leave a Reply

Your email address will not be published. Required fields are marked *

This site uses Akismet to reduce spam. Learn how your comment data is processed.