Rammstein – Herzeleid (Remastered)




Artist: Rammstein
Year: 1995/2017
Genre: Metal
Notes: Discogs
Add. Notes: Remastered
Encoder: FLAC
Bitrate: ~5500 kBit/s (192 kHz/24 Bit/s)
Bin/Cue incl.: Yes
Size: 2594,1 MB
Password: “slam” (without ” “)


http://www.share-online.biz/dl/ANAJ9RRP7AW
http://www.share-online.biz/dl/P7JJ9RRP28R
http://www.share-online.biz/dl/MSIK9RRPB5G
http://www.share-online.biz/dl/NITK9RRPS7
http://www.share-online.biz/dl/DGYL9RRPA8
http://www.share-online.biz/dl/MG1L9RRPCO93
https://rapidgator.net/file/28473f75f1d12d8eedecb69bbfdd7fc8
https://rapidgator.net/file/2d9b6fbbc326014ef0fdd09ab17f2866
https://rapidgator.net/file/5529c287b4f4048a846f0c9607972363
https://rapidgator.net/file/61ea4ce10f46e60e06b6941b6006d9af
https://rapidgator.net/file/83f5172ace2d5d7d5336820ac4785ded
https://rapidgator.net/file/880bb933be2bf06505b509576ecd28bf
https://uploadbyte.com/5r648fa5abps
https://uploadbyte.com/f5rs8l105bp5
https://uploadbyte.com/jag16nh8tw8l
https://uploadbyte.com/mcvjel7lttkm
https://uploadbyte.com/mul827dqh8ut
https://uploadbyte.com/xn0xk5bt0fhs
https://uploadever.com/2z44toqvatze
https://uploadever.com/2zzw7s1et4v0
https://uploadever.com/6okca04dmynm
https://uploadever.com/81smj01pa97z
https://uploadever.com/i1urixhlf74r
https://uploadever.com/mazkxdkgpby8

Tracklist:

A1 - Wollt Ihr Das Bett In Flammen Sehen - 5:17
A2 - Der Meister - 4:08
A3 - Weißes Fleisch - 3:35
B1 - Asche Zu Asche - 3:51
B2 - Seemann - 4:48
B3 - Du Riechst So Gut - 4:49
C1 - Das Alte Leid - 5:44
C2 - Heirate Mich - 4:44
C3 - Herzeleid - 3:41
D1 - Laichzeit - 4:20
D2 - Rammstein - 4:25

EAC-Log, CUE-Sheed & NFO:

Click to open spoiler
REM GENRE Industrial
REM DATE 1995
REM COMMENT UNI-0602527-29662
PERFORMER “Rammstein”
TITLE “Herzeleid”
FILE “Herzeleid.flac” WAVE
TRACK 01 AUDIO
TITLE “Wollt ihr das Bett in Flammen sehen”
INDEX 01 00:00:00
TRACK 02 AUDIO
TITLE “Der Meister”
INDEX 01 05:17:24
TRACK 03 AUDIO
TITLE “Weisses Fleisch”
INDEX 01 09:28:04
TRACK 04 AUDIO
TITLE “Asche zu Asche”
INDEX 01 13:04:67
TRACK 05 AUDIO
TITLE “Seemann”
INDEX 01 16:56:47
TRACK 06 AUDIO
TITLE “Du riechst so gut”
INDEX 01 21:44:59
TRACK 07 AUDIO
TITLE “Das alte Leid”
INDEX 01 26:36:04
TRACK 08 AUDIO
TITLE “Heirate mich”
INDEX 01 32:20:42
TRACK 09 AUDIO
TITLE “Herzeleid”
INDEX 01 37:05:17
TRACK 10 AUDIO
TITLE “Laichzeit”
INDEX 01 40:49:19
TRACK 11 AUDIO
TITLE “Rammstein”
INDEX 01 45:12:02

Leave a Reply

Your email address will not be published. Required fields are marked *

This site uses Akismet to reduce spam. Learn how your comment data is processed.