Rammstein – Amsterdam In Flammen… (Bootleg)




No Cover available

Artist: Rammstein
Year: 1997
Genre: Metal
Notes: Discogs
Add. Notes: Bootleg
Watch Songs on: YouTube
Cover incl.: Yes
Encoder: FLAC
Bitrate: ~1000 kBit/s (44.1 kHz/16 Bit/s)
Log & Cue incl.: Yes/Yes
Size: 529,2 MB
Password: “slam” (without ” “)


All Downloads/Hosters are compatible

Download 1
KatFile.com
Turbobit.net
Rapidgator.net
FileFactory.com
Download 2
KatFile.com
Turbobit.net
Rapidgator.net
FileFactory.com

Tracklist:

1 Rammstein 4:23
2 Tier 3:38
3 Bestrafe Mich 3:49
4 Weisses Fleisch 4:35
5 Sehnsucht 4:26
6 Asche Zu Asche 3:28
7 Seemann 6:05
8 Heirate Mich 5:23
9 Du Riechst So Gut 5:00
10 Du Hast 4:24
11 Bück Dich 5:46
12 Engel 6:43
13 Spiel Mit Mir 4:43
14 Laichzeit 4:50
15 Wollt Ihr Das Bett In Flammen Sehen 5:23
16 Engel 6:01

EAC-Log, CUE-Sheed & NFO:

Click to open spoiler
Exact Audio Copy V1.0 beta 1 from 15. November 2010

EAC extraction logfile from 8. August 2011, 17:57

Rammstein / Amsterdam In Flammen

Used drive : XXXXXXXXXXXXXXX Adapter: 3 ID: 0

Read mode : Secure
Utilize accurate stream : Yes
Defeat audio cache : No
Make use of C2 pointers : Yes

Read offset correction : 667
Overread into Lead-In and Lead-Out : No
Fill up missing offset samples with silence : Yes
Delete leading and trailing silent blocks : No
Null samples used in CRC calculations : No
Used interface : Native Win32 interface for Win NT & 2000
Gap handling : Not detected, thus appended to previous track

Used output format : User Defined Encoder
Selected bitrate : 128 kBit/s
Quality : High
Add ID3 tag : No
Command line compressor : C:\Program Files\Exact Audio Copy\Flac\flac.exe
Additional command line options : -T “artist=%a” -T “title=%t” -T “album=%g” -T “date=%y” -T “tracknumber=%n” -T “genre=%m” -5 %s

TOC of the extracted CD

Track | Start | Length | Start sector | End sector
———————————————————
1 | 0:00.01 | 4:22.50 | 1 | 19700
2 | 4:22.51 | 3:48.17 | 19701 | 36817
3 | 8:10.68 | 3:48.38 | 36818 | 53955
4 | 11:59.31 | 4:34.45 | 53956 | 74550
5 | 16:34.01 | 4:26.19 | 74551 | 94519
6 | 21:00.20 | 3:27.40 | 94520 | 110084
7 | 24:27.60 | 6:05.14 | 110085 | 137473
8 | 30:32.74 | 5:23.08 | 137474 | 161706
9 | 35:56.07 | 4:59.71 | 161707 | 184202
10 | 40:56.03 | 4:23.47 | 184203 | 203974
11 | 45:19.50 | 5:45.68 | 203975 | 229917
12 | 51:05.43 | 6:43.24 | 229918 | 260166
13 | 57:48.67 | 4:42.73 | 260167 | 281389
14 | 62:31.65 | 4:49.39 | 281390 | 303103
15 | 67:21.29 | 5:23.24 | 303104 | 327352
16 | 72:44.53 | 6:00.49 | 327353 | 354401

Track 1

Filename C:\Rip\Rammstein [1997] [CD] Amsterdam In Flammen (Digipak) [EAC-FLAC]\01. Rammstein – 01. Rammstein.wav

Peak level 94.6 %
Extraction speed 1.5 X
Track quality 99.9 %
Copy CRC 7A27C8B8
Track not present in AccurateRip database
Copy OK

Track 2

Filename C:\Rip\Rammstein [1997] [CD] Amsterdam In Flammen (Digipak) [EAC-FLAC]\02. Rammstein – 02. Tier.wav

Peak level 94.4 %
Extraction speed 3.9 X
Track quality 100.0 %
Copy CRC 9B54B88E
Track not present in AccurateRip database
Copy OK

Track 3

Filename C:\Rip\Rammstein [1997] [CD] Amsterdam In Flammen (Digipak) [EAC-FLAC]\03. Rammstein – 03. Bestrafe Mich.wav

Peak level 93.8 %
Extraction speed 3.7 X
Track quality 99.9 %
Copy CRC 0C1B6CAA
Track not present in AccurateRip database
Copy OK

Track 4

Filename C:\Rip\Rammstein [1997] [CD] Amsterdam In Flammen (Digipak) [EAC-FLAC]\04. Rammstein – 04. Weisses Fleisch.wav

Peak level 93.8 %
Extraction speed 3.8 X
Track quality 100.0 %
Copy CRC 0CD84981
Track not present in AccurateRip database
Copy OK

Track 5

Filename C:\Rip\Rammstein [1997] [CD] Amsterdam In Flammen (Digipak) [EAC-FLAC]\05. Rammstein – 05. Sehnsucht.wav

Peak level 94.6 %
Extraction speed 3.9 X
Track quality 100.0 %
Copy CRC F74E0F30
Track not present in AccurateRip database
Copy OK

Track 6

Filename C:\Rip\Rammstein [1997] [CD] Amsterdam In Flammen (Digipak) [EAC-FLAC]\06. Rammstein – 06. Asche Zu Asche.wav

Peak level 94.4 %
Extraction speed 3.9 X
Track quality 100.0 %
Copy CRC 7A17635D
Track not present in AccurateRip database
Copy OK

Track 7

Filename C:\Rip\Rammstein [1997] [CD] Amsterdam In Flammen (Digipak) [EAC-FLAC]\07. Rammstein – 07. Seemann.wav

Peak level 93.4 %
Extraction speed 3.8 X
Track quality 100.0 %
Copy CRC AC11501E
Track not present in AccurateRip database
Copy OK

Track 8

Filename C:\Rip\Rammstein [1997] [CD] Amsterdam In Flammen (Digipak) [EAC-FLAC]\08. Rammstein – 08. Heirate Mich.wav

Peak level 95.2 %
Extraction speed 3.8 X
Track quality 100.0 %
Copy CRC B91ED173
Track not present in AccurateRip database
Copy OK

Track 9

Filename C:\Rip\Rammstein [1997] [CD] Amsterdam In Flammen (Digipak) [EAC-FLAC]\09. Rammstein – 09. Du Riechst So Gut.wav

Peak level 95.0 %
Extraction speed 3.8 X
Track quality 99.9 %
Copy CRC 6D00F69B
Track not present in AccurateRip database
Copy OK

Track 10

Filename C:\Rip\Rammstein [1997] [CD] Amsterdam In Flammen (Digipak) [EAC-FLAC]\10. Rammstein – 10. Du Hast.wav

Peak level 96.3 %
Extraction speed 3.9 X
Track quality 100.0 %
Copy CRC 8052F388
Track not present in AccurateRip database
Copy OK

Track 11

Filename C:\Rip\Rammstein [1997] [CD] Amsterdam In Flammen (Digipak) [EAC-FLAC]\11. Rammstein – 11. Buck Dich.wav

Peak level 95.8 %
Extraction speed 3.9 X
Track quality 100.0 %
Copy CRC 94EF4ACA
Track not present in AccurateRip database
Copy OK

Track 12

Filename C:\Rip\Rammstein [1997] [CD] Amsterdam In Flammen (Digipak) [EAC-FLAC]\12. Rammstein – 12. Engel.wav

Peak level 96.6 %
Extraction speed 3.9 X
Track quality 100.0 %
Copy CRC 8241C2B0
Track not present in AccurateRip database
Copy OK

Track 13

Filename C:\Rip\Rammstein [1997] [CD] Amsterdam In Flammen (Digipak) [EAC-FLAC]\13. Rammstein – 13. Spiel Mit Mir.wav

Peak level 93.1 %
Extraction speed 3.7 X
Track quality 100.0 %
Copy CRC 43A079EF
Track not present in AccurateRip database
Copy OK

Track 14

Filename C:\Rip\Rammstein [1997] [CD] Amsterdam In Flammen (Digipak) [EAC-FLAC]\14. Rammstein – 14. Laichzeit.wav

Peak level 93.0 %
Extraction speed 3.9 X
Track quality 100.0 %
Copy CRC E83922FC
Track not present in AccurateRip database
Copy OK

Track 15

Filename C:\Rip\Rammstein [1997] [CD] Amsterdam In Flammen (Digipak) [EAC-FLAC]\15. Rammstein – 15. Wollt Ihr Das Bett In Flammen Sehen.wav

Peak level 95.6 %
Extraction speed 3.9 X
Track quality 100.0 %
Copy CRC 17536DEA
Track not present in AccurateRip database
Copy OK

Track 16

Filename C:\Rip\Rammstein [1997] [CD] Amsterdam In Flammen (Digipak) [EAC-FLAC]\16. Rammstein – 16. Engel (Bonustrack – Live Australia 1997).wav

Peak level 87.1 %
Extraction speed 3.9 X
Track quality 100.0 %
Copy CRC 1ECD9D9B
Track not present in AccurateRip database
Copy OK

None of the tracks are present in the AccurateRip database

No errors occurred

End of status report

REM GENRE Metal
REM DATE 1997
REM DISCID EB127510
REM COMMENT “ExactAudioCopy v1.0b1”
PERFORMER “Rammstein”
TITLE “Amsterdam In Flammen”
FILE “Range.wav” WAVE
TRACK 01 AUDIO
TITLE “01. Rammstein”
PERFORMER “Rammstein”
ISRC 000000000000
INDEX 00 00:00:00
INDEX 01 00:00:01
TRACK 02 AUDIO
TITLE “02. Tier”
PERFORMER “Rammstein”
ISRC 000000000000
INDEX 01 04:22:51
TRACK 03 AUDIO
TITLE “03. Bestrafe Mich”
PERFORMER “Rammstein”
ISRC 000000000000
INDEX 01 08:10:68
TRACK 04 AUDIO
TITLE “04. Weisses Fleisch”
PERFORMER “Rammstein”
ISRC 000000000000
INDEX 01 11:59:31
TRACK 05 AUDIO
TITLE “05. Sehnsucht”
PERFORMER “Rammstein”
ISRC 000000000000
INDEX 01 16:34:01
TRACK 06 AUDIO
TITLE “06. Asche Zu Asche”
PERFORMER “Rammstein”
ISRC 000000000000
INDEX 01 21:00:20
TRACK 07 AUDIO
TITLE “07. Seemann”
PERFORMER “Rammstein”
ISRC 000000000000
INDEX 01 24:27:60
TRACK 08 AUDIO
TITLE “08. Heirate Mich”
PERFORMER “Rammstein”
ISRC 000000000000
INDEX 01 30:32:74
TRACK 09 AUDIO
TITLE “09. Du Riechst So Gut”
PERFORMER “Rammstein”
ISRC 000000000000
INDEX 01 35:56:07
TRACK 10 AUDIO
TITLE “10. Du Hast”
PERFORMER “Rammstein”
ISRC 000000000000
INDEX 01 40:56:03
TRACK 11 AUDIO
TITLE “11. Buck Dich”
PERFORMER “Rammstein”
ISRC 000000000000
INDEX 01 45:19:50
TRACK 12 AUDIO
TITLE “12. Engel”
PERFORMER “Rammstein”
ISRC 000000000000
INDEX 01 51:05:43
TRACK 13 AUDIO
TITLE “13. Spiel Mit Mir”
PERFORMER “Rammstein”
ISRC 000000000000
INDEX 01 57:48:67
TRACK 14 AUDIO
TITLE “14. Laichzeit”
PERFORMER “Rammstein”
ISRC 000000000000
INDEX 01 62:31:65
TRACK 15 AUDIO
TITLE “15. Wollt Ihr Das Bett In Flammen Sehen?”
PERFORMER “Rammstein”
ISRC 000000000000
INDEX 01 67:21:29
TRACK 16 AUDIO
TITLE “16. Engel (Bonustrack – Live Australia 1997)”
PERFORMER “Rammstein”
ISRC 000000000000
INDEX 01 72:44:53


0

Publication author

offline 4 days

Chaos

3
Comments: 4Publics: 3565Registration: 02-02-2019
Spread the Download

Leave a Reply

Your email address will not be published. Required fields are marked *

Enter the text from the image below
 

This site uses Akismet to reduce spam. Learn how your comment data is processed.