Rammstein – 5/4 B-sides




No Cover available

Artist: Rammstein
Year: 2002
Genre: Metal
Notes: Discogs
Add. Notes:
Watch Songs on: YouTube
Cover incl.: Yes
Encoder: FLAC
Bitrate: ~900 kBit/s (44.1 kHz/16 Bit/s)
Log & Cue incl.: Yes/Yes
Size: 475,3 MB
Password: “slam” (without ” “)


All Downloads/Hosters are compatible

Download 1
KatFile.com
Turbobit.net
Rapidgator.net
FileFactory.com
Download 2
KatFile.com
Turbobit.net
Rapidgator.net
FileFactory.com

Tracklist:

1 5/4 5:35
2 Mutter (Sono's Inkubator Mix) 7:22
3 My Name Is... (Rammstein & Eminem) 3:56
4 Wilder Wien (Demo Version) 5:42
5 Buck Dich (Album Version) 3:22
6 Adios 3:51
7 Rammstein (Eskimos & Egypt Radio Edit) 3:40
8 Stripped (Heavy Metal Mix By Charlie Clouser) 5:16
9 Kokain 3:09
10 Hallelujah 3:45
11 Engel (Extended Version) 4:36
12 Du Hast (Remix By Clawfinger) 5:24
13 Feuerrader (Live Demo Version) 4:50
14 Mutter (Vicider Mix) 4:34
15 Pet Sematary 6:07

EAC-Log, CUE-Sheed & NFO:

Click to open spoiler
Exact Audio Copy V1.3 from 2. September 2016

Отчёт EAC об извлечении, выполненном 9. марта 2017, 22:11

Rammstein / 5#4 B-SIDES

Дисковод: HL-DT-STDVD-RAM GSA-H54N Adapter: 1 ID: 0

Режим чтения : Достоверность
Использование точного потока : Да
Отключение кэша аудио : Да
Использование указателей C2 : Нет

Коррекция смещения при чтении : 102
Способность читать области Lead-in и Lead-out : Нет
Заполнение пропущенных сэмплов тишиной : Да
Удаление блоков с тишиной в начале и конце : Нет
При вычислениях CRC использовались нулевые сэмплы : Да
Интерфейс : Встроенный Win32-интерфейс для Win NT/2000

Выходной формат : Пользовательский кодировщик
Выбранный битрейт : 1024 kBit/s
Качество : Высокий
Добавление ID3-тега : Нет
Утилита сжатия : C:\Program Files\Exact Audio Copy\Flac\flac.exe
Дополнительные параметры : -V -8 -T “Date=%year%” -T “Genre=%genre%” %source%

TOC извлечённого CD

Трек | Старт | Длительность | Начальный сектор | Конечный сектор
———————————————————————
1 | 0:00.00 | 5:35.10 | 0 | 25134
2 | 5:35.10 | 7:22.10 | 25135 | 58294
3 | 12:57.20 | 3:56.50 | 58295 | 76044
4 | 16:53.70 | 5:42.07 | 76045 | 101701
5 | 22:36.02 | 3:22.58 | 101702 | 116909
6 | 25:58.60 | 3:51.29 | 116910 | 134263
7 | 29:50.14 | 3:42.33 | 134264 | 150946
8 | 33:32.47 | 5:14.44 | 150947 | 174540
9 | 38:47.16 | 3:09.45 | 174541 | 188760
10 | 41:56.61 | 3:40.16 | 188761 | 205276
11 | 45:37.02 | 4:36.26 | 205277 | 226002
12 | 50:13.28 | 5:24.04 | 226003 | 250306
13 | 55:37.32 | 4:48.54 | 250307 | 271960
14 | 60:26.11 | 4:34.13 | 271961 | 292523
15 | 65:00.24 | 6:07.13 | 292524 | 320061
16 | 73:39.37 | 0:40.20 | 331462 | 334481

Характеристики диапазона извлечения и сообщения об ошибках

Выбранный диапазон

Имя файла D:\Ales Temporary\Rammstein – 5#4 B-SIDES.wav

Пиковый уровень 100.0 %
Скорость извлечения 3.1 X
Качество диапазона 100.0 %
CRC теста 0409AB08
CRC копии 0409AB08
Копирование… OK

Ошибок не произошло

AccurateRip: сводка

Трек 1 : извлечено точно (доверие 2) [C0F62F32] (AR v2)
Трек 2 : извлечено точно (доверие 2) [3C7139F5] (AR v2)
Трек 3 : извлечено точно (доверие 2) [86B597FF] (AR v2)
Трек 4 : извлечено точно (доверие 2) [FBDBE961] (AR v2)
Трек 5 : извлечено точно (доверие 2) [27589D68] (AR v2)
Трек 6 : извлечено точно (доверие 2) [8A345919] (AR v2)
Трек 7 : извлечено точно (доверие 2) [2F5D619A] (AR v2)
Трек 8 : извлечено точно (доверие 2) [20A7EBD4] (AR v2)
Трек 9 : извлечено точно (доверие 2) [E5521623] (AR v2)
Трек 10 : извлечено точно (доверие 2) [F615DC26] (AR v2)
Трек 11 : извлечено точно (доверие 2) [F4A8C437] (AR v2)
Трек 12 : извлечено точно (доверие 2) [C3C7DD89] (AR v2)
Трек 13 : извлечено точно (доверие 2) [FE93CB65] (AR v2)
Трек 14 : извлечено точно (доверие 2) [772F900A] (AR v2)
Трек 15 : извлечено точно (доверие 2) [66020963] (AR v2)

Все треки извлечены точно

Конец отчёта

==== Контрольная сумма отчёта 9600FB09B1EFF6B1A698B169D65FE29617363D357DE5C17ADEDA3E30B2E49B86 ====

REM GENRE Metal
REM DATE 2002
REM DISCID E0116B10
REM COMMENT “ExactAudioCopy v1.3”
PERFORMER “Rammstein”
TITLE “5#4 B-SIDES”
REM COMPOSER “”
FILE “Rammstein – 5#4 B-SIDES.flac” WAVE
TRACK 01 AUDIO
TITLE “5/4”
PERFORMER “Rammstein”
REM COMPOSER “”
INDEX 01 00:00:00
TRACK 02 AUDIO
TITLE “Mutter (Sono’s Inkubator Mix)”
PERFORMER “Rammstein”
REM COMPOSER “”
INDEX 01 05:35:10
TRACK 03 AUDIO
TITLE “My Name Is… (Rammstein & Eminem)”
PERFORMER “Rammstein”
REM COMPOSER “”
INDEX 01 12:57:20
TRACK 04 AUDIO
TITLE “Wilder Wein (Demo Version)”
PERFORMER “Rammstein”
REM COMPOSER “”
INDEX 01 16:53:70
TRACK 05 AUDIO
TITLE “Buck Dich (Album Version)”
PERFORMER “Rammstein”
REM COMPOSER “”
INDEX 01 22:36:02
TRACK 06 AUDIO
TITLE “Adios”
PERFORMER “Rammstein”
REM COMPOSER “”
INDEX 01 25:58:60
TRACK 07 AUDIO
TITLE “Rammstein (Eskimos & Egypt Radio Edit)”
PERFORMER “Rammstein”
REM COMPOSER “”
INDEX 01 29:50:14
TRACK 08 AUDIO
TITLE “Stripped (Heavy Mental Mix By Charlie Clouser)”
PERFORMER “Rammstein”
REM COMPOSER “”
INDEX 01 33:32:47
TRACK 09 AUDIO
TITLE “Kokain”
PERFORMER “Rammstein”
REM COMPOSER “”
INDEX 01 38:47:16
TRACK 10 AUDIO
TITLE “Hallelujah”
PERFORMER “Rammstein”
REM COMPOSER “”
INDEX 01 41:56:61
TRACK 11 AUDIO
TITLE “Engel (Extended Version)”
PERFORMER “Rammstein”
REM COMPOSER “”
INDEX 01 45:37:02
TRACK 12 AUDIO
TITLE “Du Hast (Remix By Clawfinger)”
PERFORMER “Rammstein”
REM COMPOSER “”
INDEX 01 50:13:28
TRACK 13 AUDIO
TITLE “Feuerrader (Live Demo Version)”
PERFORMER “Rammstein”
REM COMPOSER “”
INDEX 01 55:37:32
TRACK 14 AUDIO
TITLE “Mutter (Vocoder Mix)”
PERFORMER “Rammstein”
REM COMPOSER “”
INDEX 01 60:26:11
TRACK 15 AUDIO
TITLE “Pet Sematary”
PERFORMER “Rammstein”
REM COMPOSER “”
INDEX 01 65:00:24
m


0

Publication author

offline 8 hours

Chaos

3
Comments: 4Publics: 3424Registration: 02-02-2019
Spread the Download

Leave a Reply

Your email address will not be published. Required fields are marked *

Enter the text from the image below
 

This site uses Akismet to reduce spam. Learn how your comment data is processed.