Rammstein – 22 Singles (1995 – 2009)




Artist: Rammstein
Year: 2009
Genre: Metal
Notes: Discogs
Add. Notes:
Cover incl.: Yes
Encoder: FLAC
Bitrate: ~1000 kBit/s (44.1 kHz/16 Bit/s)
Log & Cue incl.: Yes
Size: 3759 MB
Password: “slam” (without ” “)


All Downloads/Hosters are compatible

Download 1
Turbobit.net
Rapidgator.net
KatFile.com
UploadRar.com
Download 2
Turbobit.net
Rapidgator.net
KatFile.com
UploadRar.com

Tracklist:

1995 – Du riechst so gut
1996 – Seemann
1997 – Engel
1997 – Engel (Fan edition)
1997 – Du hast
1997 – Das Modell
1998 – Du riechst so gut ´98
1998 – Stripped
2000 - Wut will nicht sterben (feat. PUHDYS)
2001 – Asche zu Asche
2001 – Sonne
2001 – Links 2 3 4
2001 – Ich will
2002 – Mutter
2003 – Feuer Frei!
2004 – Mein Teil
2004 – Amerika
2004 – Ohne dich
2005 – Keine Lust
2005 – Benzin
2005 – Rosenrot
2005 – Mann gegen Mann
2009 – Pussy

EAC-Log, CUE-Sheed & NFO:

Click to open spoiler
EAC extrae el archivo del registro desde 28. Diciembre 2003, 13:36 para el CD
Rammstein / Du riechst so gut

Unidad Usada: HL-DT-STCD-RW GCE-8320B Adapter: 1 ID: 1
Modo de Lectura: Seguro sin C2, con Flujo Preciso, sin desactivar Cache
Corrección Combinada de Lectura/Escritura del Balance: 0
Leer por encima de la sesión inicial y final del CD : No

Usar Formato de Salida: C:\Archivos de programa\Exact Audio Copy\Codecs\MAC.exe (Compresor Monkey’s Audio (menor pérdida))
High Lossless Compression
Opciones adicionales de la Linea de comandos: %l–alt-preset 128%l%h–alt-preset standard%h %s %d

Otras Opciones:
Rellenar muestras pérdidas del balance con silencios : Si
Eliminar bloques de silencios al principio y final : No
Interfaz ASPI externa instalada

Límite erroneo
Seleccionar Límite
Nombre de archivo C:\Documents and Settings\Alberto\Escritorio\CDImage.wav

Nivel de pico 100.0 %
Calidad de límite 100.0 %
CRC E1659208
Copia realizada

No existen errores

Fin de la información de estado

Exact Audio Copy V0.99 prebeta 3 from 28. July 2007

EAC Auslese-Logdatei vom 11. Juli 2008, 3:13

Rammstein / Du riechst so gut ’98

Benutztes Laufwerk : SONY DVD RW DW-Q31A Adapter: 0 ID: 0

Lesemodus : Sicher
Benutze Accurate Stream : Ja
Audio Puffer abgeschaltet : Ja
Benutze C2 Fehlerinformationen : Nein

Leseoffset Korrektur : 6
Überlesen in das Lead-In und Lead-Out : Nein
Fülle fehlende Offsetsample mit Stille auf : Ja
Lösche führende und nachfolgende stille Blöcke : Nein
Null Samples gehen in CRC Berechnungen ein : Ja
Benutzte Schnittstelle : Installierte externe ASPI Schnittstelle

Benutztes Ausgabeformat : Interne WAV Routinen
Sampleformat : 44.100 Hz; 16 Bit; Stereo

TOC der ausgelesenen CD

Track | Start | Länge | Startsektor | Endsektor
——————————————————-
1 | 0:00.00 | 4:24.40 | 0 | 19839
2 | 4:24.40 | 1:57.52 | 19840 | 28666
3 | 6:22.17 | 4:07.10 | 28667 | 47201
4 | 10:29.27 | 4:47.05 | 47202 | 68731
5 | 15:16.32 | 4:45.30 | 68732 | 90136
6 | 20:01.62 | 3:53.35 | 90137 | 107646
7 | 23:55.22 | 4:33.45 | 107647 | 128166
8 | 28:28.67 | 5:17.31 | 128167 | 151972
9 | 36:18.23 | 17:02.00 | 163373 | 240022

Bereichsstatus und Fehler

Gewählter Bereich

Dateiname C:\Rammstein – Complete Discography\Singles\1998 – Du riechst so gut ’98\Rammstein – Du riechst so gut ’98.wav

Spitzenpegel 99.9 %
Bereichsqualität 100.0 %
Kopie CRC E0E0AEB1
Kopie OK

Keine Fehler aufgetreten

AccurateRip Übersicht

Track 1 akkurat gelesen (Zuversicht 7) [ED2C5765]
Track 2 akkurat gelesen (Zuversicht 7) [2497C947]
Track 3 akkurat gelesen (Zuversicht 7) [F8434186]
Track 4 akkurat gelesen (Zuversicht 7) [E77E29D2]
Track 5 akkurat gelesen (Zuversicht 7) [C71635CB]
Track 6 akkurat gelesen (Zuversicht 7) [6B2CB8EE]
Track 7 akkurat gelesen (Zuversicht 7) [46B2706F]
Track 8 akkurat gelesen (Zuversicht 7) [348C9BD4]

Alle Tracks wurden akkurat gelesen

Ende des Statusreports

Exact Audio Copy V0.99 prebeta 3 from 28. July 2007

EAC Auslese-Logdatei vom 22. April 2008, 2:41

Rammstein / Du Hast

Benutztes Laufwerk : SONY DVD RW DW-Q31A Adapter: 0 ID: 0

Lesemodus : Sicher
Benutze Accurate Stream : Ja
Audio Puffer abgeschaltet : Ja
Benutze C2 Fehlerinformationen : Nein

Leseoffset Korrektur : 6
Überlesen in das Lead-In und Lead-Out : Nein
Fülle fehlende Offsetsample mit Stille auf : Ja
Lösche führende und nachfolgende stille Blöcke : Nein
Null Samples gehen in CRC Berechnungen ein : Ja
Benutzte Schnittstelle : Installierte externe ASPI Schnittstelle

Benutztes Ausgabeformat : Interne WAV Routinen
Sampleformat : 44.100 Hz; 16 Bit; Stereo

TOC der ausgelesenen CD

Track | Start | Länge | Startsektor | Endsektor
——————————————————-
1 | 0:00.32 | 3:55.43 | 32 | 17699
2 | 3:56.00 | 3:22.52 | 17700 | 32901
3 | 7:18.52 | 6:44.55 | 32902 | 63256
4 | 14:03.32 | 5:24.00 | 63257 | 87556

Bereichsstatus und Fehler

Gewählter Bereich

Dateiname C:\Rammstein – 7 Maxi Singles\1997 – Du hast\Rammstein – Du Hast.wav

Spitzenpegel 100.0 %
Bereichsqualität 100.0 %
Kopie CRC E595E6B3
Kopie OK

Keine Fehler aufgetreten

AccurateRip Übersicht

Track 1 akkurat gelesen (Zuversicht 7) [A26E0DAE]
Track 2 akkurat gelesen (Zuversicht 7) [3E77AF2D]
Track 3 akkurat gelesen (Zuversicht 7) [D492A0DC]
Track 4 akkurat gelesen (Zuversicht 7) [BED2D3F3]

Alle Tracks wurden akkurat gelesen

Ende des Statusreports

Exact Audio Copy V0.99 prebeta 3 from 28. July 2007

EAC Auslese-Logdatei vom 22. April 2008, 2:49

Rammstein / Das Modell

Benutztes Laufwerk : SONY DVD RW DW-Q31A Adapter: 0 ID: 0

Lesemodus : Sicher
Benutze Accurate Stream : Ja
Audio Puffer abgeschaltet : Ja
Benutze C2 Fehlerinformationen : Nein

Leseoffset Korrektur : 6
Überlesen in das Lead-In und Lead-Out : Nein
Fülle fehlende Offsetsample mit Stille auf : Ja
Lösche führende und nachfolgende stille Blöcke : Nein
Null Samples gehen in CRC Berechnungen ein : Ja
Benutzte Schnittstelle : Installierte externe ASPI Schnittstelle

Benutztes Ausgabeformat : Interne WAV Routinen
Sampleformat : 44.100 Hz; 16 Bit; Stereo

TOC der ausgelesenen CD

Track | Start | Länge | Startsektor | Endsektor
——————————————————-
1 | 0:00.00 | 4:45.65 | 0 | 21439
2 | 4:45.65 | 3:09.40 | 21440 | 35654
3 | 7:55.30 | 4:23.06 | 35655 | 55385
4 | 14:50.36 | 1:05.35 | 66786 | 71695

Bereichsstatus und Fehler

Gewählter Bereich

Dateiname C:\Rammstein – 7 Maxi Singles\1997 – Das Modell\Rammstein – Das Modell.wav

Spitzenpegel 100.0 %
Bereichsqualität 100.0 %
Kopie CRC 1DA7C0DF
Kopie OK

Keine Fehler aufgetreten

AccurateRip Übersicht

Track 1 akkurat gelesen (Zuversicht 8) [323DCA44]
Track 2 akkurat gelesen (Zuversicht 8) [AEC4A80E]
Track 3 akkurat gelesen (Zuversicht 8) [99ED1889]

Alle Tracks wurden akkurat gelesen

Ende des Statusreports

Exact Audio Copy V0.99 prebeta 3 from 28. July 2007

EAC Auslese-Logdatei vom 11. Juli 2008, 9:55

Rammstein / Benzin

Benutztes Laufwerk : SONY DVD RW DW-Q31A Adapter: 0 ID: 0

Lesemodus : Sicher
Benutze Accurate Stream : Ja
Audio Puffer abgeschaltet : Ja
Benutze C2 Fehlerinformationen : Nein

Leseoffset Korrektur : 6
Überlesen in das Lead-In und Lead-Out : Nein
Fülle fehlende Offsetsample mit Stille auf : Ja
Lösche führende und nachfolgende stille Blöcke : Nein
Null Samples gehen in CRC Berechnungen ein : Ja
Benutzte Schnittstelle : Installierte externe ASPI Schnittstelle

Benutztes Ausgabeformat : Interne WAV Routinen
Sampleformat : 44.100 Hz; 16 Bit; Stereo

TOC der ausgelesenen CD

Track | Start | Länge | Startsektor | Endsektor
——————————————————-
1 | 0:00.00 | 3:47.61 | 0 | 17085
2 | 3:47.61 | 5:05.58 | 17086 | 40018
3 | 8:53.44 | 3:45.24 | 40019 | 56917
4 | 12:38.68 | 3:48.41 | 56918 | 74058

Bereichsstatus und Fehler

Gewählter Bereich

Dateiname C:\Rammstein – Complete Discography\Singles\2005 – Benzin\Rammstein – Benzin.wav

Spitzenpegel 99.9 %
Bereichsqualität 100.0 %
Kopie CRC C1839D88
Kopie OK

Keine Fehler aufgetreten

AccurateRip Übersicht

Track 1 akkurat gelesen (Zuversicht 5) [C164FF8E]
Track 2 akkurat gelesen (Zuversicht 6) [33CAADCB]
Track 3 akkurat gelesen (Zuversicht 5) [EA0EB15D]
Track 4 akkurat gelesen (Zuversicht 5) [54D0E536]

Alle Tracks wurden akkurat gelesen

Ende des Statusreports

EAC extraction logfile from 23. September 2004, 14:13 for CD
Rammstein / Amerika

Used drive : TEAC CD-W552E Adapter: 1 ID: 1
Read mode : Secure with NO C2, accurate stream, disable cache
Read offset correction : 0
Overread into Lead-In and Lead-Out : No

Used output format : Internal WAV Routines
44.100 Hz; 16 Bit; Stereo

Other options :
Fill up missing offset samples with silence : Yes
Delete leading and trailing silent blocks : No
Installed external ASPI interface

Range status and errors
Selected range
Filename E:\temp\Amerika EP.wav

Peak level 100.0 %
Range quality 99.9 %
CRC FABD25B5
Copy OK

No errors occured

End of status report

Exact Audio Copy V0.99 prebeta 3 from 28. July 2007

EAC Auslese-Logdatei vom 22. April 2008, 9:05

Puhdys / Wut Will Nicht Sterben

Benutztes Laufwerk : SONY DVD RW DW-Q31A Adapter: 0 ID: 0

Lesemodus : Sicher
Benutze Accurate Stream : Ja
Audio Puffer abgeschaltet : Ja
Benutze C2 Fehlerinformationen : Nein

Leseoffset Korrektur : 6
Überlesen in das Lead-In und Lead-Out : Nein
Fülle fehlende Offsetsample mit Stille auf : Ja
Lösche führende und nachfolgende stille Blöcke : Nein
Null Samples gehen in CRC Berechnungen ein : Ja
Benutzte Schnittstelle : Installierte externe ASPI Schnittstelle

Benutztes Ausgabeformat : Interne WAV Routinen
Sampleformat : 44.100 Hz; 16 Bit; Stereo

TOC der ausgelesenen CD

Track | Start | Länge | Startsektor | Endsektor
——————————————————-
1 | 0:00.00 | 4:27.62 | 0 | 20086
2 | 4:27.62 | 6:39.00 | 20087 | 50011
3 | 11:06.62 | 3:54.00 | 50012 | 67561
4 | 15:00.62 | 5:22.44 | 67562 | 91755

Bereichsstatus und Fehler

Gewählter Bereich

Dateiname C:\Rammstein – 7 Maxi Singles\Puhdys – 2000 – Wut will nicht sterben\Puhdys – Wut Will Nicht Sterben.wav

Spitzenpegel 100.0 %
Bereichsqualität 100.0 %
Kopie CRC E8248CC3
Kopie OK

Keine Fehler aufgetreten

AccurateRip Übersicht

Track 1 nicht in Datenbank enthalten
Track 2 nicht in Datenbank enthalten
Track 3 nicht in Datenbank enthalten
Track 4 nicht in Datenbank enthalten

Keiner der Tracks ist in der AccurateRip Datenbank vorhanden

Ende des Statusreports

Exact Audio Copy V0.99 prebeta 3 from 28. July 2007

EAC Auslese-Logdatei vom 22. April 2008, 3:03

Rammstein / Stripped

Benutztes Laufwerk : SONY DVD RW DW-Q31A Adapter: 0 ID: 0

Lesemodus : Sicher
Benutze Accurate Stream : Ja
Audio Puffer abgeschaltet : Ja
Benutze C2 Fehlerinformationen : Nein

Leseoffset Korrektur : 6
Überlesen in das Lead-In und Lead-Out : Nein
Fülle fehlende Offsetsample mit Stille auf : Ja
Lösche führende und nachfolgende stille Blöcke : Nein
Null Samples gehen in CRC Berechnungen ein : Ja
Benutzte Schnittstelle : Installierte externe ASPI Schnittstelle

Benutztes Ausgabeformat : Interne WAV Routinen
Sampleformat : 44.100 Hz; 16 Bit; Stereo

TOC der ausgelesenen CD

Track | Start | Länge | Startsektor | Endsektor
——————————————————-
1 | 0:00.00 | 4:28.74 | 0 | 20173
2 | 4:28.74 | 4:32.11 | 20174 | 40584
3 | 9:01.10 | 5:16.19 | 40585 | 64303
4 | 14:17.29 | 5:13.62 | 64304 | 87840
5 | 19:31.16 | 4:35.69 | 87841 | 108534
6 | 26:39.10 | 24:47.14 | 119935 | 231473

Bereichsstatus und Fehler

Gewählter Bereich

Dateiname C:\Rammstein – 7 Maxi Singles\1998 – Stripped\Rammstein – Stripped.wav

Spitzenpegel 100.0 %
Bereichsqualität 99.9 %
Kopie CRC E3DEB5A6
Kopie OK

Keine Fehler aufgetreten

AccurateRip Übersicht

Track 1 akkurat gelesen (Zuversicht 6) [ED39C178]
Track 2 akkurat gelesen (Zuversicht 6) [59452DCF]
Track 3 akkurat gelesen (Zuversicht 6) [29BFFAE5]
Track 4 akkurat gelesen (Zuversicht 6) [806406A1]
Track 5 akkurat gelesen (Zuversicht 6) [E9C12F8A]

Alle Tracks wurden akkurat gelesen

Ende des Statusreports

Exact Audio Copy V0.99 prebeta 3 from 28. July 2007

EAC Auslese-Logdatei vom 22. April 2008, 3:21

Rammstein / Sonne

Benutztes Laufwerk : SONY DVD RW DW-Q31A Adapter: 0 ID: 0

Lesemodus : Sicher
Benutze Accurate Stream : Ja
Audio Puffer abgeschaltet : Ja
Benutze C2 Fehlerinformationen : Nein

Leseoffset Korrektur : 6
Überlesen in das Lead-In und Lead-Out : Nein
Fülle fehlende Offsetsample mit Stille auf : Ja
Lösche führende und nachfolgende stille Blöcke : Nein
Null Samples gehen in CRC Berechnungen ein : Ja
Benutzte Schnittstelle : Installierte externe ASPI Schnittstelle

Benutztes Ausgabeformat : Interne WAV Routinen
Sampleformat : 44.100 Hz; 16 Bit; Stereo

TOC der ausgelesenen CD

Track | Start | Länge | Startsektor | Endsektor
——————————————————-
1 | 0:00.00 | 4:35.04 | 0 | 20628
2 | 4:35.04 | 3:51.09 | 20629 | 37962
3 | 8:26.13 | 4:11.16 | 37963 | 56803
4 | 12:37.29 | 5:50.67 | 56804 | 83120
5 | 18:28.21 | 4:32.05 | 83121 | 103525

Bereichsstatus und Fehler

Gewählter Bereich

Dateiname C:\Rammstein – 7 Maxi Singles\2001 – Sonne\Rammstein – Sonne.wav

Spitzenpegel 100.0 %
Bereichsqualität 100.0 %
Kopie CRC 556AA644
Kopie OK

Keine Fehler aufgetreten

AccurateRip Übersicht

Track 1 akkurat gelesen (Zuversicht 7) [9FA81A3C]
Track 2 akkurat gelesen (Zuversicht 7) [43A57620]
Track 3 akkurat gelesen (Zuversicht 7) [07A55218]
Track 4 akkurat gelesen (Zuversicht 7) [064FD1FA]
Track 5 akkurat gelesen (Zuversicht 7) [D9B8523E]

Alle Tracks wurden akkurat gelesen

Ende des Statusreports

EAC extrae el archivo del registro desde 28. Diciembre 2003, 0:52 para el CD
Rammstein / Seeman (CDS)

Unidad Usada: HL-DT-STCD-RW GCE-8320B Adapter: 1 ID: 1
Modo de Lectura: Seguro sin C2, con Flujo Preciso, sin desactivar Cache
Corrección Combinada de Lectura/Escritura del Balance: 0
Leer por encima de la sesión inicial y final del CD : No

Usar Formato de Salida: C:\Archivos de programa\Exact Audio Copy\Codecs\MAC.exe (Compresor Monkey’s Audio (menor pérdida))
High Lossless Compression
Opciones adicionales de la Linea de comandos: %l–alt-preset 128%l%h–alt-preset standard%h %s %d

Otras Opciones:
Rellenar muestras pérdidas del balance con silencios : Si
Eliminar bloques de silencios al principio y final : No
Interfaz Win32 para Windows (NT/2000/XP)

Límite erroneo
Seleccionar Límite
Nombre de archivo C:\Documents and Settings\Alberto\Escritorio\RAMMS+EIN.-.Original Sigle Kollek+ion\SEEMANN.[MCD].[1996].[EAC.APE]\RAMMS+EIN.[1996].[MCD].SEEMANN.[EAC-APE].BY.4RTX3R.[MeTaLMaDNeSS.TeaM].wav

Nivel de pico 99.0 %
Calidad de límite 100.0 %
CRC DDB01008
Copia realizada

No existen errores

Fin de la información de estado

Exact Audio Copy V0.99 prebeta 3 from 28. July 2007

EAC Auslese-Logdatei vom 11. Juli 2008, 10:06

Rammstein / Rosenrot

Benutztes Laufwerk : SONY DVD RW DW-Q31A Adapter: 0 ID: 0

Lesemodus : Sicher
Benutze Accurate Stream : Ja
Audio Puffer abgeschaltet : Ja
Benutze C2 Fehlerinformationen : Nein

Leseoffset Korrektur : 6
Überlesen in das Lead-In und Lead-Out : Nein
Fülle fehlende Offsetsample mit Stille auf : Ja
Lösche führende und nachfolgende stille Blöcke : Nein
Null Samples gehen in CRC Berechnungen ein : Ja
Benutzte Schnittstelle : Installierte externe ASPI Schnittstelle

Benutztes Ausgabeformat : Interne WAV Routinen
Sampleformat : 44.100 Hz; 16 Bit; Stereo

TOC der ausgelesenen CD

Track | Start | Länge | Startsektor | Endsektor
——————————————————-
1 | 0:00.00 | 3:47.26 | 0 | 17050
2 | 3:47.26 | 4:35.64 | 17051 | 37739
3 | 8:23.15 | 4:46.74 | 37740 | 59263
4 | 13:10.14 | 4:49.61 | 59264 | 80999

Bereichsstatus und Fehler

Gewählter Bereich

Dateiname C:\Rammstein – Complete Discography\Singles\2005 – Rosenrot\Rammstein – Rosenrot.wav

Spitzenpegel 99.9 %
Bereichsqualität 100.0 %
Kopie CRC E5C880CE
Kopie OK

Keine Fehler aufgetreten

AccurateRip Übersicht

Track 1 nicht in Datenbank enthalten
Track 2 nicht in Datenbank enthalten
Track 3 nicht in Datenbank enthalten
Track 4 nicht in Datenbank enthalten

Keiner der Tracks ist in der AccurateRip Datenbank vorhanden

Ende des Statusreports

Exact Audio Copy V0.99 prebeta 5 from 4. May 2009

EAC Auslese-Logdatei vom 20. Februar 2010, 17:53

Rammstein / Pussy

Benutztes Laufwerk : HL-DT-STDVD-ROM GDR-H30N Adapter: 0 ID: 1

Lesemodus : Sicher
Benutze Accurate Stream : Ja
Audio Puffer abgeschaltet : Ja
Benutze C2 Fehlerinformationen : Nein

Leseoffset Korrektur : 6
Überlesen in das Lead-In und Lead-Out : Nein
Fülle fehlende Offsetsample mit Stille auf : Ja
Lösche führende und nachfolgende stille Blöcke : Nein
Null Samples gehen in CRC Berechnungen ein : Ja
Benutzte Schnittstelle : Installierte externe ASPI Schnittstelle

Benutztes Ausgabeformat : Interne WAV Routinen
Sampleformat : 44.100 Hz; 16 Bit; Stereo

TOC der ausgelesenen CD

Track | Start | Länge | Startsektor | Endsektor
——————————————————-
1 | 0:00.00 | 3:47.37 | 0 | 17061
2 | 3:47.37 | 5:18.52 | 17062 | 40963

Bereichsstatus und Fehler

Gewählter Bereich

Dateiname K:\Rammstein – Discography\Singles\2009 – Pussy\Rammstein – Pussy.wav

Spitzenpegel 99.8 %
Bereichsqualität 100.0 %
Kopie CRC CA2082F7
Kopie OK

Keine Fehler aufgetreten

AccurateRip Übersicht

Track 1 akkurat gelesen (Zuversicht 13) [0CFBDC3E]
Track 2 akkurat gelesen (Zuversicht 14) [5260DDA7]

Alle Tracks wurden akkurat gelesen

Ende des Statusreports

EAC extraction logfile from 30. November 2004, 15:28 for CD
Rammstein / Ohne Dich

Used drive : TEAC CD-W552E Adapter: 1 ID: 1
Read mode : Secure with NO C2, accurate stream, disable cache
Read offset correction : 0
Overread into Lead-In and Lead-Out : No

Used output format : Internal WAV Routines
44.100 Hz; 16 Bit; Stereo

Other options :
Fill up missing offset samples with silence : Yes
Delete leading and trailing silent blocks : No
Installed external ASPI interface

Range status and errors
Selected range
Filename E:\temp\Ohne_Dich.wav

Peak level 99.9 %
Range quality 99.9 %
CRC 56ECFF7F
Copy OK

No errors occured

End of status report

Exact Audio Copy V0.99 prebeta 3 from 28. July 2007

EAC Auslese-Logdatei vom 22. April 2008, 8:50

Rammstein / Mutter (CD Single)

Benutztes Laufwerk : SONY DVD RW DW-Q31A Adapter: 0 ID: 0

Lesemodus : Sicher
Benutze Accurate Stream : Ja
Audio Puffer abgeschaltet : Ja
Benutze C2 Fehlerinformationen : Nein

Leseoffset Korrektur : 6
Überlesen in das Lead-In und Lead-Out : Nein
Fülle fehlende Offsetsample mit Stille auf : Ja
Lösche führende und nachfolgende stille Blöcke : Nein
Null Samples gehen in CRC Berechnungen ein : Ja
Benutzte Schnittstelle : Installierte externe ASPI Schnittstelle

Benutztes Ausgabeformat : Interne WAV Routinen
Sampleformat : 44.100 Hz; 16 Bit; Stereo

TOC der ausgelesenen CD

Track | Start | Länge | Startsektor | Endsektor
——————————————————-
1 | 0:00.00 | 3:41.67 | 0 | 16641
2 | 3:41.67 | 4:34.10 | 16642 | 37201
3 | 8:16.02 | 5:31.23 | 37202 | 62049
4 | 13:47.25 | 7:22.02 | 62050 | 95201

Bereichsstatus und Fehler

Gewählter Bereich

Dateiname C:\Rammstein – 7 Maxi Singles\2002 – Mutter\Rammstein – Mutter (CD Single).wav

Spitzenpegel 98.8 %
Bereichsqualität 100.0 %
Kopie CRC 3EA663AA
Kopie OK

Keine Fehler aufgetreten

AccurateRip Übersicht

Track 1 akkurat gelesen (Zuversicht 1) [3ACCDB35]
Track 2 akkurat gelesen (Zuversicht 1) [CE8A4A8E]
Track 3 akkurat gelesen (Zuversicht 1) [FF063AAB]
Track 4 akkurat gelesen (Zuversicht 1) [9BD6A51B]

Alle Tracks wurden akkurat gelesen

Ende des Statusreports

EAC extraction logfile from 13. August 2004, 18:18 for CD
Rammstein / Mein Teil

Used drive : TEAC CD-W552E Adapter: 1 ID: 1
Read mode : Secure with NO C2, accurate stream, disable cache
Read offset correction : 0
Overread into Lead-In and Lead-Out : No

Used output format : Internal WAV Routines
44.100 Hz; 16 Bit; Stereo

Other options :
Fill up missing offset samples with silence : Yes
Delete leading and trailing silent blocks : No
Installed external ASPI interface

Range status and errors
Selected range
Filename E:\CD_TEMP\RAMMSTEIN\Mein Teil EP.wav

Peak level 99.9 %
Range quality 100.0 %
CRC 51714832
Copy OK

No errors occured

End of status report

EAC extraction logfile from 3. March 2006, 10:48 for CD
Rammstein / Mann Gegen Mann

Used drive : PLEXTOR CD-R PREMIUM Adapter: 0 ID: 1
Read mode : Secure with NO C2, accurate stream, disable cache
Read offset correction : 30
Overread into Lead-In and Lead-Out : No

Used output format : Internal WAV Routines
44.100 Hz; 16 Bit; Stereo

Other options :
Fill up missing offset samples with silence : Yes
Delete leading and trailing silent blocks : No
Installed external ASPI interface

Range status and errors
Selected range
Filename G:\Rammstein – Mann Gegen Mann.wav

Peak level 99.9 %
Range quality 100.0 %
CRC 48505F1A
Copy OK

No errors occured

End of status report

Exact Audio Copy V0.99 prebeta 3 from 28. July 2007

EAC Auslese-Logdatei vom 22. April 2008, 8:35

Rammstein / Links 2-3-4

Benutztes Laufwerk : SONY DVD RW DW-Q31A Adapter: 0 ID: 0

Lesemodus : Sicher
Benutze Accurate Stream : Ja
Audio Puffer abgeschaltet : Ja
Benutze C2 Fehlerinformationen : Nein

Leseoffset Korrektur : 6
Überlesen in das Lead-In und Lead-Out : Nein
Fülle fehlende Offsetsample mit Stille auf : Ja
Lösche führende und nachfolgende stille Blöcke : Nein
Null Samples gehen in CRC Berechnungen ein : Ja
Benutzte Schnittstelle : Installierte externe ASPI Schnittstelle

Benutztes Ausgabeformat : Interne WAV Routinen
Sampleformat : 44.100 Hz; 16 Bit; Stereo

TOC der ausgelesenen CD

Track | Start | Länge | Startsektor | Endsektor
——————————————————-
1 | 0:00.00 | 3:42.35 | 0 | 16684
2 | 3:42.35 | 3:45.50 | 16685 | 33609
3 | 7:28.10 | 4:27.52 | 33610 | 53686
4 | 11:55.62 | 5:57.28 | 53687 | 80489
5 | 17:53.15 | 3:43.10 | 80490 | 97224

Bereichsstatus und Fehler

Gewählter Bereich

Dateiname C:\Rammstein – 7 Maxi Singles\2001 – Links 2 3 4\Rammstein – Links 2-3-4.wav

Spitzenpegel 99.9 %
Bereichsqualität 100.0 %
Kopie CRC A9755855
Kopie OK

Keine Fehler aufgetreten

AccurateRip Übersicht

Track 1 akkurat gelesen (Zuversicht 3) [36A946EF]
Track 2 akkurat gelesen (Zuversicht 3) [F443303D]
Track 3 akkurat gelesen (Zuversicht 3) [063AB69F]
Track 4 akkurat gelesen (Zuversicht 3) [CA1FD057]
Track 5 akkurat gelesen (Zuversicht 3) [3E01548E]

Alle Tracks wurden akkurat gelesen

Ende des Statusreports

EAC extraction logfile from 3. March 2005, 11:40 for CD
Rammstein / Keine Lust MCD

Used drive : PLEXTOR CD-R PREMIUM Adapter: 1 ID: 1
Read mode : Secure with NO C2, accurate stream, disable cache
Read offset correction : 0
Overread into Lead-In and Lead-Out : No

Used output format : Internal WAV Routines
44.100 Hz; 16 Bit; Stereo

Other options :
Fill up missing offset samples with silence : Yes
Delete leading and trailing silent blocks : No
Installed external ASPI interface

Range status and errors
Selected range
Filename H:\Rammstein – Keine Lust MCD.wav

Peak level 99.9 %
Range quality 100.0 %
CRC 318128A1
Copy OK

No errors occured

End of status report

EAC extraction logfile from 18. January 2005, 23:25 for CD
Rammstein / Ich Will

Used drive : _NEC DVD_RW ND-3500AG Adapter: 1 ID: 0
Read mode : Secure with NO C2, accurate stream, disable cache
Read offset correction : 48
Overread into Lead-In and Lead-Out : No

Used output format : Internal WAV Routines
44.100 Hz; 16 Bit; Stereo

Other options :
Fill up missing offset samples with silence : Yes
Delete leading and trailing silent blocks : No
Installed external ASPI interface

Range status and errors
Selected range
Filename G:\Rammstein – Ich Will.wav

Peak level 99.9 %
Range quality 100.0 %
CRC 30B492AF
Copy OK

No errors occured

End of status report

EAC extraction logfile from 12. March 2007, 13:43 for CD
Rammstein / Feuer Frei [6-Track Single]

Used drive : PLEXTOR CD-R PREMIUM Adapter: 5 ID: 1
Read mode : Secure with NO C2, accurate stream, disable cache
Read offset correction : 30
Overread into Lead-In and Lead-Out : Yes

Used output format : Internal WAV Routines
44.100 Hz; 16 Bit; Stereo

Other options :
Fill up missing offset samples with silence : Yes
Delete leading and trailing silent blocks : No
Installed external ASPI interface

Range status and errors
Selected range
Filename G:\Rammstein – Feuer Frei! [6-Track Single].wav

Peak level 99.9 %
Range quality 100.0 %
CRC 0E889063
Copy OK

No errors occured

End of status report

EAC extrae el archivo del registro desde 28. Diciembre 2003, 1:18 para el CD
Rammstein / Engel

Unidad Usada: HL-DT-STCD-RW GCE-8320B Adapter: 1 ID: 1
Modo de Lectura: Seguro sin C2, con Flujo Preciso, sin desactivar Cache
Corrección Combinada de Lectura/Escritura del Balance: 0
Leer por encima de la sesión inicial y final del CD : No

Usar Formato de Salida: C:\Archivos de programa\Exact Audio Copy\Codecs\MAC.exe (Compresor Monkey’s Audio (menor pérdida))
High Lossless Compression
Opciones adicionales de la Linea de comandos: %l–alt-preset 128%l%h–alt-preset standard%h %s %d

Otras Opciones:
Rellenar muestras pérdidas del balance con silencios : Si
Eliminar bloques de silencios al principio y final : No
Interfaz Win32 para Windows (NT/2000/XP)

Límite erroneo
Seleccionar Límite
Nombre de archivo C:\Documents and Settings\Alberto\Escritorio\RAMMS+EIN.-.Original Sigle Kollek+ion\ENGEL.[MCD].[1997].[EAC.APE]\RAMMS+EIN.[1997].[MCD].ENGEL.[EAC-APE].BY.4RTX3R.[MeTaLMaDNeSS.TeaM].wav

Nivel de pico 100.0 %
Calidad de límite 100.0 %
CRC C9EDFC35
Copia realizada

No existen errores

Fin de la información de estado

Exact Audio Copy V0.99 prebeta 3 from 28. July 2007

EAC Auslese-Logdatei vom 22. April 2008, 2:31

Rammstein / Engel (fan edition)

Benutztes Laufwerk : SONY DVD RW DW-Q31A Adapter: 0 ID: 0

Lesemodus : Sicher
Benutze Accurate Stream : Ja
Audio Puffer abgeschaltet : Ja
Benutze C2 Fehlerinformationen : Nein

Leseoffset Korrektur : 6
Überlesen in das Lead-In und Lead-Out : Nein
Fülle fehlende Offsetsample mit Stille auf : Ja
Lösche führende und nachfolgende stille Blöcke : Nein
Null Samples gehen in CRC Berechnungen ein : Ja
Benutzte Schnittstelle : Installierte externe ASPI Schnittstelle

Benutztes Ausgabeformat : Interne WAV Routinen
Sampleformat : 44.100 Hz; 16 Bit; Stereo

TOC der ausgelesenen CD

Track | Start | Länge | Startsektor | Endsektor
——————————————————-
1 | 0:00.00 | 4:36.22 | 0 | 20721
2 | 4:36.22 | 4:50.00 | 20722 | 42471
3 | 9:26.22 | 5:42.03 | 42472 | 68124
4 | 15:08.25 | 3:28.70 | 68125 | 83794

Bereichsstatus und Fehler

Gewählter Bereich

Dateiname C:\Rammstein – 7 Maxi Singles\1997 – Engel (Fan Edition)\Rammstein – Engel (fan edition).wav

Spitzenpegel 100.0 %
Bereichsqualität 100.0 %
Kopie CRC EE594823
Kopie OK

Keine Fehler aufgetreten

AccurateRip Übersicht

Track 1 akkurat gelesen (Zuversicht 11) [8A4656B2]
Track 2 akkurat gelesen (Zuversicht 11) [A4991A6B]
Track 3 akkurat gelesen (Zuversicht 11) [FC8D17A7]
Track 4 akkurat gelesen (Zuversicht 11) [D696ADAE]

Alle Tracks wurden akkurat gelesen

Ende des Statusreports

REM GENRE Pop
REM DATE 1998
REM DISCID 640C8009
REM COMMENT “ExactAudioCopy v0.99pb3”
PERFORMER “Rammstein”
TITLE “Du riechst so gut ’98”
FILE “Rammstein – Du riechst so gut ’98.flac” WAVE
TRACK 01 AUDIO
TITLE “Du riechst so gut ’98”
PERFORMER “Rammstein”
INDEX 01 00:00:00
TRACK 02 AUDIO
TITLE “Du riechst so gut [Remix by Faith No More]”
PERFORMER “Rammstein”
INDEX 00 04:24:36
INDEX 01 04:24:40
TRACK 03 AUDIO
TITLE “Du riechst so gut [Remix by Guenter Schulz – KMFDM & Hiwatt Marshall]”
PERFORMER “Rammstein”
INDEX 00 06:22:11
INDEX 01 06:22:17
TRACK 04 AUDIO
TITLE “Du riechst so gut [Remix by Sascha Konietzko – KMFDM]”
PERFORMER “Rammstein”
INDEX 00 10:29:24
INDEX 01 10:29:27
TRACK 05 AUDIO
TITLE “Du riechst so gut [Remix by Olaf Bruhn – Bobo In White Wooden Houses]”
PERFORMER “Rammstein”
INDEX 00 15:16:29
INDEX 01 15:16:32
TRACK 06 AUDIO
TITLE “Du riechst so gut [Remix by Sascha Moser – Bobo In White Wooden Houses]”
PERFORMER “Rammstein”
INDEX 01 20:01:62
TRACK 07 AUDIO
TITLE “Du riechst so gut [Remix by Jacob Hellner & Marc Stagg]”
PERFORMER “Rammstein”
INDEX 01 23:55:22
TRACK 08 AUDIO
TITLE “Du riechst so gut [‘Migraene’-Remix by Günter Schulz – KMFDM]”
PERFORMER “Rammstein”
INDEX 01 28:28:67

REM GENRE Industrial
REM DATE 1997
REM DISCID 28048F04
REM COMMENT “ExactAudioCopy v0.99pb3”
PERFORMER “Rammstein”
TITLE “Du Hast”
FILE “Rammstein – Du Hast.flac” WAVE
TRACK 01 AUDIO
TITLE “Du Hast (Single Version)”
PERFORMER “Rammstein”
INDEX 00 00:00:00
INDEX 01 00:00:32
TRACK 02 AUDIO
TITLE “Bueck Dich (Album Version)”
PERFORMER “Rammstein”
INDEX 00 03:54:50
INDEX 01 03:56:00
TRACK 03 AUDIO
TITLE “Du Hast (Remix By Jacob Hellner)”
PERFORMER “Rammstein”
INDEX 00 07:17:40
INDEX 01 07:18:52
TRACK 04 AUDIO
TITLE “Du Hast (Remix By Clawfinger)”
PERFORMER “Rammstein”
INDEX 00 14:02:07
INDEX 01 14:03:32

REM GENRE Metal
REM DATE 1997
REM DISCID 3803BB04
REM COMMENT “ExactAudioCopy v0.99pb3”
PERFORMER “Rammstein”
TITLE “Das Modell”
FILE “Rammstein – Das Modell.flac” WAVE
TRACK 01 AUDIO
TITLE “Das Modell”
PERFORMER “Rammstein”
INDEX 01 00:00:00
TRACK 02 AUDIO
TITLE “Kokain”
PERFORMER “Rammstein”
INDEX 01 04:45:65
TRACK 03 AUDIO
TITLE “Alter Mann [special version]”
PERFORMER “Rammstein”
INDEX 01 07:55:30

REM GENRE Industrial
REM DATE 2005
REM DISCID 2903DB04
REM COMMENT “ExactAudioCopy v0.99pb3”
PERFORMER “Rammstein”
TITLE “Benzin”
FILE “Rammstein – Benzin.flac” WAVE
TRACK 01 AUDIO
TITLE “Benzin”
PERFORMER “Rammstein”
INDEX 01 00:00:00
TRACK 02 AUDIO
TITLE “Benzin (Combustion Remix By Meshuggah)”
PERFORMER “Rammstein”
INDEX 00 03:47:41
INDEX 01 03:47:61
TRACK 03 AUDIO
TITLE “Benzin (Smallstars Remix By Ad Rock)”
PERFORMER “Rammstein”
INDEX 00 08:53:01
INDEX 01 08:53:44
TRACK 04 AUDIO
TITLE “Benzin (Kerosinii Remix By Apocalyptica)”
PERFORMER “Rammstein”
INDEX 00 12:36:65
INDEX 01 12:38:68

REM GENRE Tanz-Metal
REM DATE 2004
PERFORMER “Rammstein”
TITLE “Amerika (Maxi)”
FILE “Rammstein – Amerika CDM.flac” WAVE
TRACK 01 AUDIO
TITLE “Amerika”
PERFORMER “Rammstein”
INDEX 01 00:00:00
TRACK 02 AUDIO
TITLE “Amerika (English Version)”
PERFORMER “Rammstein”
INDEX 00 03:40:41
INDEX 01 03:42:64
TRACK 03 AUDIO
TITLE “Amerika (Digital Hardcore Mix) by Alec Empire”
PERFORMER “Rammstein”
INDEX 00 07:23:54
INDEX 01 07:25:15
TRACK 04 AUDIO
TITLE “Amerika (Western-Remix) by Olsen Involtini”
PERFORMER “Rammstein”
INDEX 00 11:14:39
INDEX 01 11:16:04
TRACK 05 AUDIO
TITLE “Amerika (Andy Panthen & Mat Diaz’s Clubmix)”
PERFORMER “Rammstein”
INDEX 00 14:30:35
INDEX 01 14:31:32
TRACK 06 AUDIO
TITLE “Amerika (Electro Ghetto Remix) By Bushido & Ilan”
PERFORMER “Rammstein”
INDEX 01 18:36:67
TRACK 07 AUDIO
TITLE “Amerika (Jam & Spoon So kann’s gehen Mix)”
PERFORMER “Rammstein”
INDEX 00 23:08:28
INDEX 01 23:09:12
TRACK 08 AUDIO
TITLE “Mein Herz brennt Orchesterlied V”
PERFORMER “Rammstein”
INDEX 00 30:39:72
INDEX 01 30:43:17

REM GENRE Rock
REM DATE 2000
REM DISCID 3204C704
REM COMMENT “ExactAudioCopy v0.99pb3”
PERFORMER “Puhdys”
TITLE “Wut Will Nicht Sterben”
FILE “Puhdys – Wut Will Nicht Sterben.flac” WAVE
TRACK 01 AUDIO
TITLE “Wut Will Nicht Sterben (Radio Edit)”
PERFORMER “Puhdys”
INDEX 01 00:00:00
TRACK 02 AUDIO
TITLE “Wut Will Nicht Sterben (Extended Mix)”
PERFORMER “Puhdys”
INDEX 00 04:25:13
INDEX 01 04:27:62
TRACK 03 AUDIO
TITLE “Wilder Frieden (Radio Edit)”
PERFORMER “Puhdys”
INDEX 00 11:04:24
INDEX 01 11:06:62
TRACK 04 AUDIO
TITLE “Tueren oeffnen Sich Zur Stadt”
PERFORMER “Puhdys”
INDEX 00 14:57:36
INDEX 01 15:00:62

REM GENRE Rock
REM DATE 1998
REM DISCID 410C0E06
REM COMMENT “ExactAudioCopy v0.99pb3”
PERFORMER “Rammstein”
TITLE “Stripped”
FILE “Rammstein – Stripped.flac” WAVE
TRACK 01 AUDIO
TITLE “Stripped”
PERFORMER “Rammstein”
INDEX 01 00:00:00
TRACK 02 AUDIO
TITLE “Stripped (Psilonaut Mix)”
PERFORMER “Rammstein”
INDEX 00 04:25:24
INDEX 01 04:28:74
TRACK 03 AUDIO
TITLE “Stripped (Heavy Mental Mix)”
PERFORMER “Rammstein”
INDEX 00 08:57:35
INDEX 01 09:01:10
TRACK 04 AUDIO
TITLE “Stripped (Tribute to Duesseldorf Mix)”
PERFORMER “Rammstein”
INDEX 00 14:13:54
INDEX 01 14:17:29
TRACK 05 AUDIO
TITLE “Stripped (FKK Mix)”
PERFORMER “Rammstein”
INDEX 00 19:27:41
INDEX 01 19:31:16

REM GENRE Industrial
REM DATE 2001
REM DISCID 37056405
REM COMMENT “ExactAudioCopy v0.99pb3”
PERFORMER “Rammstein”
TITLE “Sonne”
FILE “Rammstein – Sonne.flac” WAVE
TRACK 01 AUDIO
TITLE “Sonne”
PERFORMER “Rammstein”
INDEX 01 00:00:00
TRACK 02 AUDIO
TITLE “Adios”
PERFORMER “Rammstein”
INDEX 00 04:33:04
INDEX 01 04:35:04
TRACK 03 AUDIO
TITLE “Sonne (Clawfinger K.O. Remix)”
PERFORMER “Rammstein”
INDEX 00 08:24:13
INDEX 01 08:26:13
TRACK 04 AUDIO
TITLE “Sonne (Clawfinger T.K.O. Remix)”
PERFORMER “Rammstein”
INDEX 00 12:35:29
INDEX 01 12:37:29
TRACK 05 AUDIO
TITLE “Sonne (Instrumental)”
PERFORMER “Rammstein”
INDEX 00 18:26:21
INDEX 01 18:28:21

PERFORMER “Rammstein”
TITLE “Seeman (CDS)”
FILE “Rammstein – Seemann.flac” WAVE
TRACK 01 AUDIO
TITLE “Seeman”
PERFORMER “Rammstein”
INDEX 00 00:00:00
INDEX 01 00:00:33
TRACK 02 AUDIO
TITLE “Der Meister”
PERFORMER “Rammstein”
INDEX 00 04:48:71
INDEX 01 04:50:45
TRACK 03 AUDIO
TITLE “Rammstein In The House (Timewriter RMX)”
PERFORMER “Rammstein”
INDEX 00 08:59:33
INDEX 01 10:00:70

REM GENRE Industrial
REM DATE 2005
REM DISCID 2B043804
REM COMMENT “ExactAudioCopy v0.99pb3”
PERFORMER “Rammstein”
TITLE “Rosenrot”
FILE “Rammstein – Rosenrot.flac” WAVE
TRACK 01 AUDIO
TITLE “Rosenrot (Single Edit)”
PERFORMER “Rammstein”
INDEX 01 00:00:00
TRACK 02 AUDIO
TITLE “Rosenrot (The Tweaker Remix by Chris Vrenna)”
PERFORMER “Rammstein”
INDEX 00 03:47:23
INDEX 01 03:47:26
TRACK 03 AUDIO
TITLE “Rosenrot (Northern Lite by Northern Lite)”
PERFORMER “Rammstein”
INDEX 00 08:21:30
INDEX 01 08:23:15
TRACK 04 AUDIO
TITLE “Rosenrot (3AM at Cosy Remix by Jagz Kooner)”
PERFORMER “Rammstein”
INDEX 00 13:08:32
INDEX 01 13:10:14

REM GENRE Industrial
REM DATE 2009
REM DISCID 0F022202
REM COMMENT “ExactAudioCopy v0.99pb5”
PERFORMER “Rammstein”
TITLE “Pussy”
FILE “Rammstein – Pussy.flac” WAVE
TRACK 01 AUDIO
TITLE “Pussy (Radio Edit)”
PERFORMER “Rammstein”
INDEX 01 00:00:00
TRACK 02 AUDIO
TITLE “Rammlied”
PERFORMER “Rammstein”
INDEX 01 03:47:37

REM GENRE Tanz-Metal
REM DATE 2004
PERFORMER “Rammstein”
TITLE “Ohne Dich (Maxi)”
FILE “Rammstein – Ohne Dich.flac” WAVE
TRACK 01 AUDIO
TITLE “Ohne Dich (Album Edit)”
PERFORMER “Rammstein”
INDEX 01 00:00:00
TRACK 02 AUDIO
TITLE “Ohne Dich (Mina Harker’s Version) Remix by Laibach”
PERFORMER “Rammstein”
INDEX 00 04:31:21
INDEX 01 04:32:62
TRACK 03 AUDIO
TITLE “Ohne Dich (Sacred Mix) Remix by Sven Helbig”
PERFORMER “Rammstein”
INDEX 00 08:31:04
INDEX 01 08:32:45
TRACK 04 AUDIO
TITLE “Ohne Dich (Schiller Mix)”
PERFORMER “Rammstein”
INDEX 00 13:05:28
INDEX 01 13:07:34
TRACK 05 AUDIO
TITLE “Ohne Dich (Under Byen Remix)”
PERFORMER “Rammstein”
INDEX 00 18:29:03
INDEX 01 18:30:07
TRACK 06 AUDIO
TITLE “Ohne Dich (Beta Version)”
PERFORMER “Rammstein”
INDEX 00 24:16:45
INDEX 01 24:18:69

REM GENRE Industrial
REM DATE 2002
REM DISCID 3104F504
REM COMMENT “ExactAudioCopy v0.99pb3”
PERFORMER “Rammstein”
TITLE “Mutter (CD Single)”
FILE “Rammstein – Mutter (CD Single).flac” WAVE
TRACK 01 AUDIO
TITLE “Mutter (Radio Edit)”
PERFORMER “Rammstein”
INDEX 01 00:00:00
TRACK 02 AUDIO
TITLE “Mutter (Vocoder Mix)”
PERFORMER “Rammstein”
INDEX 00 03:40:05
INDEX 01 03:41:67
TRACK 03 AUDIO
TITLE “5/4”
PERFORMER “Rammstein”
INDEX 00 08:14:05
INDEX 01 08:16:02
TRACK 04 AUDIO
TITLE “Mutter (Sono’s Inkubator Mix)”
PERFORMER “Rammstein”
INDEX 00 13:46:15
INDEX 01 13:47:25

REM GENRE Tanz-Metal
REM DATE 2004
PERFORMER “Rammstein”
TITLE “Mein Teil (Maxi)”
FILE “Rammstein – Mein Teil EP.flac” WAVE
TRACK 01 AUDIO
TITLE “Mein Teil”
PERFORMER “Rammstein”
INDEX 01 00:00:00
TRACK 02 AUDIO
TITLE “Mein Teil [You Are What You Eat Edit] (Remix by Pet Shop Boys)”
PERFORMER “Rammstein”
INDEX 00 04:22:52
INDEX 01 04:24:52
TRACK 03 AUDIO
TITLE “Mein Teil [The Return to New York Buffet Mix] (Remix by Arthur Baker)”
PERFORMER “Rammstein”
INDEX 00 08:31:03
INDEX 01 08:33:03
TRACK 04 AUDIO
TITLE “Mein Teil [There Are No Guitars On This Mix] (Remix by Pet Shop Boys)”
PERFORMER “Rammstein”
INDEX 00 15:54:66
INDEX 01 15:56:67

REM GENRE Industrial
REM DATE 2005
REM DISCID 2D075F04
REM COMMENT “ExactAudioCopy v0.95b4”
CATALOG 0602498775509
PERFORMER “Rammstein”
TITLE “Mann Gegen Mann”
FILE “Rammstein – Mann Gegen Mann.flac” WAVE
TRACK 01 AUDIO
TITLE “Mann Gegen Mann”
PERFORMER “Rammstein”
ISRC DEUM70503674
INDEX 01 00:00:00
TRACK 02 AUDIO
TITLE “Mann Gegen Mann [Popular Music Mix By Vince Clarke]”
PERFORMER “Rammstein”
ISRC DEUM70600146
INDEX 01 03:51:66
TRACK 03 AUDIO
TITLE “Mann Gegen Mann [Musensohn Remix By Sven Helbig]”
PERFORMER “Rammstein”
ISRC DEUM70600147
INDEX 01 07:57:63

REM GENRE “Deutsch Rock”
REM DATE 2001
REM DISCID 2F051005
REM COMMENT “ExactAudioCopy v0.99pb3”
PERFORMER “Rammstein”
TITLE “Links 2-3-4”
FILE “Rammstein – Links 2-3-4.flac” WAVE
TRACK 01 AUDIO
TITLE “Links 2 3 4”
PERFORMER “Rammstein”
INDEX 01 00:00:00
TRACK 02 AUDIO
TITLE “Halleluja”
PERFORMER “Rammstein”
INDEX 01 03:42:35
TRACK 03 AUDIO
TITLE “Links 2 3 4 [Clawfinger Geradeaus remix]”
PERFORMER “Rammstein”
INDEX 00 07:27:25
INDEX 01 07:28:10
TRACK 04 AUDIO
TITLE “Links 2 3 4 [Westbam technoelectro mix]”
PERFORMER “Rammstein”
INDEX 01 11:55:62
TRACK 05 AUDIO
TITLE “Links 2 3 4 [Westbam hard rock cafe bonus mix]”
PERFORMER “Rammstein”
INDEX 01 17:53:15

CATALOG 0602498699232
PERFORMER “Rammstein”
TITLE “Keine Lust MCD”
FILE “Rammstein – Keine Lust MCD.flac” WAVE
TRACK 01 AUDIO
TITLE “Keine Lust”
PERFORMER “Rammstein”
ISRC DEN120405582
INDEX 01 00:00:00
TRACK 02 AUDIO
TITLE “Keine Lust (Remix No.1) By Clawfinger”
PERFORMER “Rammstein”
ISRC DEN120501129
INDEX 00 03:43:47
INDEX 01 03:44:69
TRACK 03 AUDIO
TITLE “Keine Lust (The Psychosonic Remix) By DJ Drug”
PERFORMER “Rammstein”
ISRC DEN120501130
INDEX 00 08:20:45
INDEX 01 08:22:07
TRACK 04 AUDIO
TITLE “Keine Lust (Bozz Remix) By Azad”
PERFORMER “Rammstein”
ISRC DEN120501132
INDEX 00 13:23:15
INDEX 01 13:24:25
TRACK 05 AUDIO
TITLE “Keine Lust (Jazz Remix) By Clawfinger”
PERFORMER “Rammstein”
ISRC DEN120501133
INDEX 00 17:15:27
INDEX 01 17:16:47
TRACK 06 AUDIO
TITLE “Keine Lust (Black Strobe Remix)”
PERFORMER “Rammstein”
ISRC DEN120501134
INDEX 00 21:27:26
INDEX 01 21:28:30
TRACK 07 AUDIO
TITLE “Keine Lust (Curve Remix) By Front 242”
PERFORMER “Rammstein”
ISRC DEN120501135
INDEX 00 28:34:72
INDEX 01 28:36:53
TRACK 08 AUDIO
TITLE “Keine Lust (Ich Zahl Die Fliegen Remix) By Krieger”
PERFORMER “Rammstein”
ISRC DEN120501136
INDEX 00 32:14:49
INDEX 01 32:16:55

REM GENRE Tanz-metal
REM DATE 2001
PERFORMER “Rammstein”
TITLE “Ich Will”
FILE “Rammstein – Ich Will.flac” WAVE
TRACK 01 AUDIO
TITLE “Ich Will (Album Version)”
PERFORMER “Rammstein”
INDEX 01 00:00:00
TRACK 02 AUDIO
TITLE “Ich Will (Live)”
PERFORMER “Rammstein”
INDEX 01 03:38:64
TRACK 03 AUDIO
TITLE “Ich Will (Westbam Mix)”
PERFORMER “Rammstein”
INDEX 01 07:56:27
TRACK 04 AUDIO
TITLE “Ich Will (Paul Van Dyk Mix)”
PERFORMER “Rammstein”
INDEX 01 14:18:17
TRACK 05 AUDIO
TITLE “Pet Sematary”
PERFORMER “Rammstein”
INDEX 01 20:31:66

REM GENRE Tanz-Metal
REM DATE 2002
PERFORMER “Rammstein”
TITLE “Feuer Frei! (Maxi)”
FILE “Rammstein – Feuer Frei.flac” WAVE
TRACK 01 AUDIO
TITLE “Feuer Frei”
PERFORMER “Rammstein”
INDEX 01 00:00:00
TRACK 02 AUDIO
TITLE “Feuer Frei (Rammstein vs. Junkie XL Remix)”
PERFORMER “Rammstein”
INDEX 00 03:08:61
INDEX 01 03:09:22
TRACK 03 AUDIO
TITLE “Feuer Frei (Rammstein Remix 130)”
PERFORMER “Rammstein”
INDEX 01 07:19:40
TRACK 04 AUDIO
TITLE “Feuer Frei (Rammstein Remix 95)”
PERFORMER “Rammstein”
INDEX 01 11:03:16
TRACK 05 AUDIO
TITLE “Du Hast (”A Tribute To Rammstein” Cover Version By Battery)”
PERFORMER “Rammstein”
INDEX 01 14:36:67
TRACK 06 AUDIO
TITLE “Bueck dich (”A Tribute To Rammstein” Cover Version By Battery)”
PERFORMER “Rammstein”
INDEX 01 19:18:31

PERFORMER “Rammstein”
TITLE “Engel”
FILE “Rammstein – Engel.flac” WAVE
TRACK 01 AUDIO
TITLE “Engel”
PERFORMER “Rammstein”
INDEX 01 00:00:00
TRACK 02 AUDIO
TITLE “Sehnsucht”
PERFORMER “Rammstein”
INDEX 00 04:23:60
INDEX 01 04:25:32
TRACK 03 AUDIO
TITLE “Rammstein (Eskimos & Egypt Radio Edit)”
PERFORMER “Rammstein”
INDEX 00 08:28:15
INDEX 01 08:29:62
TRACK 04 AUDIO
TITLE “Rammstein (Eskimos & Egypt Instrumental Edit)”
PERFORMER “Rammstein”
INDEX 01 12:10:42
TRACK 05 AUDIO
TITLE “Rammstein (Original)”
PERFORMER “Rammstein”
INDEX 00 15:38:10
INDEX 01 15:40:45

REM GENRE Industrial
REM DATE 1997
REM DISCID 30045D04
REM COMMENT “ExactAudioCopy v0.99pb3”
PERFORMER “Rammstein”
TITLE “Engel (fan edition)”
FILE “Rammstein – Engel (fan edition).flac” WAVE
TRACK 01 AUDIO
TITLE “Engel (extended)”
PERFORMER “Rammstein”
INDEX 01 00:00:00
TRACK 02 AUDIO
TITLE “Feuerraeder (live demo 1994)”
PERFORMER “Rammstein”
INDEX 00 04:34:42
INDEX 01 04:36:22
TRACK 03 AUDIO
TITLE “Wilder Wein (demo)”
PERFORMER “Rammstein”
INDEX 00 09:24:07
INDEX 01 09:26:22
TRACK 04 AUDIO
TITLE “Rammstein (eskimos & egypt instrumental)”
PERFORMER “Rammstein”
INDEX 00 15:07:25
INDEX 01 15:08:25

PERFORMER “Rammstein”
TITLE “Du riechst so gut”
FILE “Rammstein – Du riechst so gut.flac” WAVE
TRACK 01 AUDIO
TITLE “Du riechst so gut”
PERFORMER “Rammstein”
INDEX 01 00:00:00
TRACK 02 AUDIO
TITLE “Wollt Ihr das Bett in Flammen sehen”
PERFORMER “Rammstein”
INDEX 01 04:50:17
TRACK 03 AUDIO
TITLE “Du riechst so gut [scal remix]”
PERFORMER “Rammstein”
INDEX 01 10:10:15


Leave a Reply

Your email address will not be published. Required fields are marked *

This site uses Akismet to reduce spam. Learn how your comment data is processed.