Rainbow – The Best Of Rainbow (Japanese Edition)




Artist: Rainbow
Year: 1981/1984
Genre: Rock
Notes: Discogs
Add. Notes: Japanese Edition
Cover incl.: Yes
Encoder: FLAC
Bitrate: ~900 kBit/s (44.1 kHz/16 Bit/s)
Log & Cue incl.: Yes
Size: 522,6 MB
Password: “slam” (without ” “)


All Downloads/Hosters are compatible

Download 1
Turbobit.net
Rapidgator.net
UploadEver.com
JustUpload.io
HexUpload.net
Download 2
Turbobit.net
Rapidgator.net
UploadEver.com
JustUpload.io
HexUpload.net
Download 3
Turbobit.net
Rapidgator.net
UploadEver.com
JustUpload.io
HexUpload.net

Tracklist:

1-1 - All Night Long - 3:54
1-2 - Man On The Silver Mountain - 4:39
1-3 - Lost In Hollywood - 4:54
1-4 - Jealous Lover - 3:14
1-5 - Long Live Rock 'N' Roll - 4:23
1-6 - Stargazer - 8:29
1-7 - Kill The King - 4:32
1-8 - A Light In The Black - 8:13
2-1 - Since You Been Gone - 3:20
2-2 - Sixteenth Century Greensleeves - 3:32
2-3 - Catch The Rainbow - 6:36
2-4 - Eyes Of The World - 6:43
2-5 - I Surrender - 4:03
2-6 - Gates Of Babylon - 6:50
2-7 - Can't Happen Here - 5:00
2-8 - Starstruck - 4:06

EAC-Log, CUE-Sheed & NFO:

Click to open spoiler
Exact Audio Copy V1.0 beta 3 from 29. August 2011

Отчёт EAC об извлечении, выполненном 7. мая 2014, 20:21

Rainbow / The Best Of Rainbow (DISC 1) [P58P-20108~9]

Дисковод: ASUS DRW-2014S1 Adapter: 1 ID: 0

Режим чтения : Достоверность
Использование точного потока : Да
Отключение кэша аудио : Да
Использование указателей C2 : Нет

Коррекция смещения при чтении : 6
Способность читать области Lead-in и Lead-out : Нет
Заполнение пропущенных сэмплов тишиной : Да
Удаление блоков с тишиной в начале и конце : Нет
При вычислениях CRC использовались нулевые сэмплы : Да
Интерфейс : Встроенный Win32-интерфейс для Win NT/2000

Выходной формат : Пользовательский кодировщик
Выбранный битрейт : 128 kBit/s
Качество : Высокий
Добавление ID3-тега : Нет
Утилита сжатия : C:\Program Files (x86)\Exact Audio Copy\Flac\flac.exe
Дополнительные параметры : -V -8 -T “Date=%year%” -T “Genre=%genre%” %source%

TOC извлечённого CD

Трек | Старт | Длительность | Начальный сектор | Конечный сектор
———————————————————————
1 | 0:00.37 | 3:54.15 | 37 | 17601
2 | 3:54.52 | 4:39.48 | 17602 | 38574
3 | 8:34.25 | 4:53.32 | 38575 | 60581
4 | 13:27.57 | 3:14.30 | 60582 | 75161
5 | 16:42.12 | 4:22.73 | 75162 | 94884
6 | 21:05.10 | 8:29.12 | 94885 | 133071
7 | 29:34.22 | 4:31.63 | 133072 | 153459
8 | 34:06.10 | 8:14.40 | 153460 | 190549

Характеристики диапазона извлечения и сообщения об ошибках

Выбранный диапазон

Имя файла Z:\Rainbow\1981 The Best Of Rainbow\Rainbow – The Best Of Rainbow (DISC 1) [P58P-20108~9].wav

Пиковый уровень 85.4 %
Скорость извлечения 8.2 X
Качество диапазона 100.0 %
CRC копии 8FA783DD
Копирование… OK

Ошибок не произошло

AccurateRip: сводка

Трек 1 точность не определена (достоверность 3) [443F1A90], AccurateRip вернул [9E394478] (AR v2)
Трек 2 точность не определена (достоверность 3) [B0DE4E6F], AccurateRip вернул [C492CCB2] (AR v2)
Трек 3 точность не определена (достоверность 3) [51A8C0AF], AccurateRip вернул [833314F7] (AR v2)
Трек 4 точность не определена (достоверность 3) [17703C1D], AccurateRip вернул [8048AB44] (AR v2)
Трек 5 точность не определена (достоверность 3) [FB703763], AccurateRip вернул [9EED03E3] (AR v2)
Трек 6 точность не определена (достоверность 3) [B604DDE2], AccurateRip вернул [217FE35B] (AR v2)
Трек 7 точность не определена (достоверность 3) [40D32145], AccurateRip вернул [CD8C3D0B] (AR v2)
Трек 8 точность не определена (достоверность 3) [33EA4569], AccurateRip вернул [9A08C1C2] (AR v2)

Ни один трек не прошёл проверки на точность
В вашей базе может быть иной вариант штамповки диска

Конец отчёта

==== Контрольная сумма отчёта 425DEFE2F25909AA03FC10CCB98E3C119EEBC4177E502C5DA4CD44969988541D ====

Exact Audio Copy V1.0 beta 3 from 29. August 2011

Отчёт EAC об извлечении, выполненном 7. мая 2014, 20:36

Rainbow / The Best Of Rainbow (DISC 2) [P58P-20108~9]

Дисковод: ASUS DRW-2014S1 Adapter: 1 ID: 0

Режим чтения : Достоверность
Использование точного потока : Да
Отключение кэша аудио : Да
Использование указателей C2 : Нет

Коррекция смещения при чтении : 6
Способность читать области Lead-in и Lead-out : Нет
Заполнение пропущенных сэмплов тишиной : Да
Удаление блоков с тишиной в начале и конце : Нет
При вычислениях CRC использовались нулевые сэмплы : Да
Интерфейс : Встроенный Win32-интерфейс для Win NT/2000

Выходной формат : Пользовательский кодировщик
Выбранный битрейт : 128 kBit/s
Качество : Высокий
Добавление ID3-тега : Нет
Утилита сжатия : C:\Program Files (x86)\Exact Audio Copy\Flac\flac.exe
Дополнительные параметры : -V -8 -T “Date=%year%” -T “Genre=%genre%” %source%

TOC извлечённого CD

Трек | Старт | Длительность | Начальный сектор | Конечный сектор
———————————————————————
1 | 0:00.37 | 3:20.38 | 37 | 15074
2 | 3:21.00 | 3:32.02 | 15075 | 30976
3 | 6:53.02 | 6:36.33 | 30977 | 60709
4 | 13:29.35 | 6:42.27 | 60710 | 90886
5 | 20:11.62 | 4:03.28 | 90887 | 109139
6 | 24:15.15 | 6:49.32 | 109140 | 139846
7 | 31:04.47 | 4:59.73 | 139847 | 162344
8 | 36:04.45 | 4:07.70 | 162345 | 180939

Характеристики диапазона извлечения и сообщения об ошибках

Выбранный диапазон

Имя файла Z:\Rainbow\1981 The Best Of Rainbow\Rainbow – The Best Of Rainbow (DISC 2) [P58P-20108~9].wav

Пиковый уровень 100.0 %
Скорость извлечения 8.4 X
Качество диапазона 100.0 %
CRC копии F8C2B592
Копирование… OK

Ошибок не произошло

AccurateRip: сводка

Трек 1 точность не определена (достоверность 3) [BB5EF1E1], AccurateRip вернул [69913B75] (AR v2)
Трек 2 точность не определена (достоверность 3) [8E210570], AccurateRip вернул [30E7A466] (AR v2)
Трек 3 точность не определена (достоверность 3) [BD366836], AccurateRip вернул [764D4FB7] (AR v2)
Трек 4 точность не определена (достоверность 3) [CAD3D553], AccurateRip вернул [6D31716C] (AR v2)
Трек 5 точность не определена (достоверность 3) [07FE1D95], AccurateRip вернул [BA58E3B6] (AR v2)
Трек 6 точность не определена (достоверность 3) [C8B44DC6], AccurateRip вернул [882756EA] (AR v2)
Трек 7 точность не определена (достоверность 3) [CCF824D1], AccurateRip вернул [66E471E2] (AR v2)
Трек 8 точность не определена (достоверность 3) [5804EF09], AccurateRip вернул [709E7C3B] (AR v2)

Ни один трек не прошёл проверки на точность
В вашей базе может быть иной вариант штамповки диска

Конец отчёта

==== Контрольная сумма отчёта 246507EEDFB807AB4BF4398BB0D30C25748D2DF62F1251BBA9E7902DBDA58AD3 ====

REM GENRE “Hard Rock”
REM DATE 1981
REM DISCID 6209EC08
REM COMMENT “ExactAudioCopy v1.0b3”
PERFORMER “Rainbow”
TITLE “The Best Of Rainbow (DISC 1) [P58P-20108~9]”
FILE “Rainbow – The Best Of Rainbow (DISC 1) [P58P-20108~9].flac” WAVE
TRACK 01 AUDIO
TITLE “All Night Long”
PERFORMER “Rainbow”
INDEX 00 00:00:00
INDEX 01 00:00:37
TRACK 02 AUDIO
TITLE “Man On The Silver Mountain”
PERFORMER “Rainbow”
INDEX 00 03:52:12
INDEX 01 03:54:52
TRACK 03 AUDIO
TITLE “Lost In Hollywood”
PERFORMER “Rainbow”
INDEX 00 08:31:62
INDEX 01 08:34:25
TRACK 04 AUDIO
TITLE “Jealous Lover”
PERFORMER “Rainbow”
INDEX 00 13:25:19
INDEX 01 13:27:57
TRACK 05 AUDIO
TITLE “Long Live Rock ‘N’ Roll”
PERFORMER “Rainbow”
INDEX 00 16:39:52
INDEX 01 16:42:12
TRACK 06 AUDIO
TITLE “Stargazer”
PERFORMER “Rainbow”
INDEX 00 21:02:47
INDEX 01 21:05:10
TRACK 07 AUDIO
TITLE “Kill The King”
PERFORMER “Rainbow”
INDEX 00 29:31:59
INDEX 01 29:34:22
TRACK 08 AUDIO
TITLE “A Light In The Black”
PERFORMER “Rainbow”
INDEX 00 34:03:52
INDEX 01 34:06:10

REM GENRE “Hard Rock”
REM DATE 1981
REM DISCID 57096C08
REM COMMENT “ExactAudioCopy v1.0b3”
PERFORMER “Rainbow”
TITLE “The Best Of Rainbow (DISC 2) [P58P-20108~9]”
FILE “Rainbow – The Best Of Rainbow (DISC 2) [P58P-20108~9].flac” WAVE
TRACK 01 AUDIO
TITLE “Since You Been Gone”
PERFORMER “Rainbow”
INDEX 00 00:00:00
INDEX 01 00:00:37
TRACK 02 AUDIO
TITLE “Sixteenth Century Greensleeves”
PERFORMER “Rainbow”
INDEX 00 03:18:38
INDEX 01 03:21:00
TRACK 03 AUDIO
TITLE “Catch The Rainbow”
PERFORMER “Rainbow”
INDEX 00 06:50:43
INDEX 01 06:53:02
TRACK 04 AUDIO
TITLE “Eyes Of The World”
PERFORMER “Rainbow”
INDEX 00 13:28:63
INDEX 01 13:29:35
TRACK 05 AUDIO
TITLE “I Surrender”
PERFORMER “Rainbow”
INDEX 00 20:09:53
INDEX 01 20:11:62
TRACK 06 AUDIO
TITLE “Gates Of Babylon”
PERFORMER “Rainbow”
INDEX 00 24:12:63
INDEX 01 24:15:15
TRACK 07 AUDIO
TITLE “Can’t Happen Here”
PERFORMER “Rainbow”
INDEX 00 31:03:10
INDEX 01 31:04:47
TRACK 08 AUDIO
TITLE “Starstruck”
PERFORMER “Rainbow”
INDEX 00 36:02:13
INDEX 01 36:04:45

Leave a Reply

Your email address will not be published. Required fields are marked *

This site uses Akismet to reduce spam. Learn how your comment data is processed.