Rainbow – Rising (Deluxe Edition)




Artist: Rainbow
Year: 1976/2011
Genre: Rock
Notes: Discogs
Add. Notes: Deluxe Edition
Encoder: FLAC
Bitrate: ~1000 kBit/s (44.1 kHz/16 Bit/s)
Bin/Cue incl.: Yes
Size: 817,25 MB
Password: “slam” (without ” “)


http://www.share-online.biz/dl/E5OZCNRPQYBE
http://www.share-online.biz/dl/QEPZCNRPNV
https://rapidgator.net/file/1de6691807bd7a93041be83c4a8b7510
https://rapidgator.net/file/b586a66567ff0bc632c5c1f115231bb7
https://uploadbyte.com/5q9g449wypdt
https://uploadbyte.com/s95c1ludgz24

Tracklist:

New York Mix
1-1 - Tarot Woman - 6:05
1-2 - Run With The Wolf - 3:45
1-3 - Starstruck - 4:08
1-4 - Do You Close Your Eyes - 3:00
1-5 - Stargazer - 8:31
1-6 - A Light In The Black - 8:11
Los Angeles Mix
1-7 - Tarot Woman - 6:04
1-8 - Run With The Wolf - 3:45
1-9 - Starstruck - 4:04
1-10 - Do You Close Your Eyes - 2:58
1-11 - Stargazer - 8:22
1-12 - A Light In The Black - 8:11
Previously Unreleased Bonus Tracks
2-1 - Tarot Woman (Rough Mix) - 6:06
2-2 - Run With The Wolf (Rough Mix) - 3:49
2-3 - Starstruck (Rough Mix) - 4:04
2-4 - Do You Close Your Eyes (Rough Mix) - 3:04
2-5 - Stargazer (Rough Mix) - 9:08
2-6 - A Light In The Black (Rough Mix) - 8:12
2-7 - Stargazer (Pirate Sound Tour Rehearsal) - 8:33

EAC-Log, CUE-Sheed & NFO:

Click to open spoiler
Exact Audio Copy V1.0 beta 3 from 29. August 2011

EAC extraction logfile from 24. October 2013, 19:27

Rainbow / Rising

Used drive : SONY BD RW BDX-S600U Adapter: 2 ID: 0

Read mode : Secure
Utilize accurate stream : Yes
Defeat audio cache : Yes
Make use of C2 pointers : No

Read offset correction : 48
Overread into Lead-In and Lead-Out : No
Fill up missing offset samples with silence : Yes
Delete leading and trailing silent blocks : No
Null samples used in CRC calculations : Yes
Used interface : Native Win32 interface for Win NT & 2000

Used output format : User Defined Encoder
Selected bitrate : 128 kBit/s
Quality : High
Add ID3 tag : No
Command line compressor : C:\Program Files (x86)\Exact Audio Copy\Flac\flac.exe
Additional command line options : -V -8 -T “Date=%year%” -T “Genre=%genre%” %source%

TOC of the extracted CD

Track | Start | Length | Start sector | End sector
———————————————————
1 | 0:00.00 | 6:05.19 | 0 | 27393
2 | 6:05.19 | 3:43.30 | 27394 | 44148
3 | 9:48.49 | 4:08.52 | 44149 | 62800
4 | 13:57.26 | 3:00.34 | 62801 | 76334
5 | 16:57.60 | 8:31.61 | 76335 | 114720
6 | 25:29.46 | 8:13.74 | 114721 | 151769
7 | 33:43.45 | 6:06.61 | 151770 | 179280
8 | 39:50.31 | 3:47.36 | 179281 | 196341
9 | 43:37.67 | 4:06.68 | 196342 | 214859
10 | 47:44.60 | 3:00.14 | 214860 | 228373
11 | 50:44.74 | 8:24.03 | 228374 | 266176
12 | 59:09.02 | 8:11.58 | 266177 | 303059

Range status and errors

Selected range

Filename D:\Rainbow Discography\Studio\1976. Rainbow – Rising\1976. Rainbow – Rising Deluxe Edition (Polydor, UMC, 5332266, Germany)\disc1\Rainbow – Rising.wav

Peak level 95.9 %
Extraction speed 15.7 X
Range quality 99.9 %
Test CRC 14A22483
Copy CRC 14A22483
Copy OK

No errors occurred

AccurateRip summary

Track 1 accurately ripped (confidence 35) [9965A2C3] (AR v2)
Track 2 accurately ripped (confidence 35) [F206A054] (AR v2)
Track 3 accurately ripped (confidence 36) [4AD3FF34] (AR v2)
Track 4 accurately ripped (confidence 36) [870A699D] (AR v2)
Track 5 accurately ripped (confidence 37) [3C1970F6] (AR v2)
Track 6 accurately ripped (confidence 36) [D78A0FE0] (AR v2)
Track 7 accurately ripped (confidence 36) [DF92A8D1] (AR v2)
Track 8 accurately ripped (confidence 36) [593CECD5] (AR v2)
Track 9 accurately ripped (confidence 36) [4188B2DA] (AR v2)
Track 10 accurately ripped (confidence 36) [64BC2FBB] (AR v2)
Track 11 accurately ripped (confidence 37) [C1C0EE14] (AR v2)
Track 12 accurately ripped (confidence 36) [796061D8] (AR v2)

All tracks accurately ripped

End of status report

—- CUETools DB Plugin V2.1.3

[CTDB TOCID: Ly9Oyr7FZo2W5GK02dJ2sU5wogY-] found, Submit result: Ly9Oyr7FZo2W5GK02dJ2sU5wogY- has been confirmed
[c28f5f31] (33/33) Accurately ripped

==== Log checksum 2174F6E0CD4C3715A93D5A3EA7A1D4B856A24FD5120355CEE0FEFA1868AE0A7D ====

Exact Audio Copy V1.0 beta 3 from 29. August 2011

EAC extraction logfile from 24. October 2013, 19:39

Rainbow / Rising

Used drive : SONY BD RW BDX-S600U Adapter: 2 ID: 0

Read mode : Secure
Utilize accurate stream : Yes
Defeat audio cache : Yes
Make use of C2 pointers : No

Read offset correction : 48
Overread into Lead-In and Lead-Out : No
Fill up missing offset samples with silence : Yes
Delete leading and trailing silent blocks : No
Null samples used in CRC calculations : Yes
Used interface : Native Win32 interface for Win NT & 2000

Used output format : User Defined Encoder
Selected bitrate : 128 kBit/s
Quality : High
Add ID3 tag : No
Command line compressor : C:\Program Files (x86)\Exact Audio Copy\Flac\flac.exe
Additional command line options : -V -8 -T “Date=%year%” -T “Genre=%genre%” %source%

TOC of the extracted CD

Track | Start | Length | Start sector | End sector
———————————————————
1 | 0:00.00 | 6:08.12 | 0 | 27611
2 | 6:08.12 | 3:50.60 | 27612 | 44921
3 | 9:58.72 | 4:06.21 | 44922 | 63392
4 | 14:05.18 | 3:06.50 | 63393 | 77392
5 | 17:11.68 | 9:10.33 | 77393 | 118675
6 | 26:22.26 | 8:15.65 | 118676 | 155865
7 | 34:38.16 | 8:33.68 | 155866 | 194408

Range status and errors

Selected range

Filename D:\Rainbow Discography\Studio\1976. Rainbow – Rising\1976. Rainbow – Rising Deluxe Edition (Polydor, UMC, 5332266, Germany)\disc2\Rainbow – Rising.wav

Peak level 97.0 %
Extraction speed 14.1 X
Range quality 100.0 %
Test CRC 23B5A77F
Copy CRC 23B5A77F
Copy OK

No errors occurred

AccurateRip summary

Track 1 accurately ripped (confidence 37) [4C863573] (AR v2)
Track 2 accurately ripped (confidence 37) [8B639C45] (AR v2)
Track 3 accurately ripped (confidence 37) [64363C6E] (AR v2)
Track 4 accurately ripped (confidence 37) [9D4753BD] (AR v2)
Track 5 accurately ripped (confidence 37) [146C9B8D] (AR v2)
Track 6 accurately ripped (confidence 37) [57827FE0] (AR v2)
Track 7 accurately ripped (confidence 37) [5145D314] (AR v2)

All tracks accurately ripped

End of status report

—- CUETools DB Plugin V2.1.3

[CTDB TOCID: NV2TzglxIv0rIMhZaXn3MjltK9A-] found, Submit result: NV2TzglxIv0rIMhZaXn3MjltK9A- has been confirmed
[425714dc] (31/31) Accurately ripped

==== Log checksum B63301502EFB79CD1626D8019A68631BEE3052EDC4C0D57B3084CEFF89343DC3 ====

REM GENRE “Hardrock, Heavy Metal”
REM DATE 1976
REM DISCID 480A2007
REM COMMENT “ExactAudioCopy v1.0b3”
PERFORMER “Rainbow”
TITLE “Rising”
FILE “Rainbow – Rising.flac” WAVE
TRACK 01 AUDIO
TITLE “Tarot Woman (Rough Mix)”
PERFORMER “Rainbow”
INDEX 01 00:00:00
TRACK 02 AUDIO
TITLE “Run With The Wolf (Rough Mix)”
PERFORMER “Rainbow”
INDEX 00 06:06:29
INDEX 01 06:08:12
TRACK 03 AUDIO
TITLE “Starstruck (Rough Mix)”
PERFORMER “Rainbow”
INDEX 00 09:57:14
INDEX 01 09:58:72
TRACK 04 AUDIO
TITLE “Do You Close Your Eyes (Rough Mix)”
PERFORMER “Rainbow”
INDEX 00 14:03:35
INDEX 01 14:05:18
TRACK 05 AUDIO
TITLE “Stargazer (Rough Mix)”
PERFORMER “Rainbow”
INDEX 00 17:10:10
INDEX 01 17:11:68
TRACK 06 AUDIO
TITLE “A Light In The Black (Rough Mix)”
PERFORMER “Rainbow”
INDEX 00 26:20:43
INDEX 01 26:22:26
TRACK 07 AUDIO
TITLE “Stargazer (Pirate Sound Tour Rehearsal)”
PERFORMER “Rainbow”
INDEX 00 34:34:32
INDEX 01 34:38:16

REM DATE 1976
REM DISCID A50FC80C
REM COMMENT “ExactAudioCopy v1.0b3”
PERFORMER “Rainbow”
TITLE “Rising”
FILE “Rainbow – Rising.flac” WAVE
TRACK 01 AUDIO
TITLE “Tarot Woman”
PERFORMER “Rainbow”
INDEX 01 00:00:00
TRACK 02 AUDIO
TITLE “Run With The Wolf”
PERFORMER “Rainbow”
INDEX 00 06:01:26
INDEX 01 06:05:19
TRACK 03 AUDIO
TITLE “Starstruck”
PERFORMER “Rainbow”
INDEX 00 09:46:19
INDEX 01 09:48:49
TRACK 04 AUDIO
TITLE “Do You Close Your Eyes”
PERFORMER “Rainbow”
INDEX 00 13:55:24
INDEX 01 13:57:26
TRACK 05 AUDIO
TITLE “Stargazer”
PERFORMER “Rainbow”
INDEX 00 16:57:27
INDEX 01 16:57:60
TRACK 06 AUDIO
TITLE “A Light In The Black”
PERFORMER “Rainbow”
INDEX 00 25:24:28
INDEX 01 25:29:46
TRACK 07 AUDIO
TITLE “Tarot Woman”
PERFORMER “Rainbow”
INDEX 00 33:41:62
INDEX 01 33:43:45
TRACK 08 AUDIO
TITLE “Run With The Wolf”
PERFORMER “Rainbow”
INDEX 00 39:48:48
INDEX 01 39:50:31
TRACK 09 AUDIO
TITLE “Starstruck”
PERFORMER “Rainbow”
INDEX 00 43:36:09
INDEX 01 43:37:67
TRACK 10 AUDIO
TITLE “Do You Close Your Eyes”
PERFORMER “Rainbow”
INDEX 00 47:43:02
INDEX 01 47:44:60
TRACK 11 AUDIO
TITLE “Stargazer”
PERFORMER “Rainbow”
INDEX 00 50:43:16
INDEX 01 50:44:74
TRACK 12 AUDIO
TITLE “A Light In The Black”
PERFORMER “Rainbow”
INDEX 00 59:07:19
INDEX 01 59:09:02

Leave a Reply

Your email address will not be published. Required fields are marked *

Enter the text from the image below
 

This site uses Akismet to reduce spam. Learn how your comment data is processed.