Rainbow – On Stage (Japanese Edition)




Artist: Rainbow
Year: 1977/1986
Genre: Rock
Notes: Discogs
Add. Notes: Japanese Edition
Cover incl.: Yes
Encoder: FLAC
Bitrate: ~800 kBit/s (44.1 kHz/16 Bit/s)
Log & Cue incl.: Yes
Size: 352,4 MB
Password: “slam” (without ” “)


All Downloads/Hosters are compatible

Download 1
Turbobit.net
Rapidgator.net
UploadEver.com
JustUpload.io
UsersDrive.com
Download 2
Turbobit.net
Rapidgator.net
UploadEver.com
JustUpload.io
UsersDrive.com
Download 3
Turbobit.net
Rapidgator.net
UploadEver.com
JustUpload.io
UsersDrive.com

Tracklist:

1 - Intro: Over The Rainbow / Kill The King - 5:29
2 - Man On The Silver Mountain - 4:16
3 - Blues - 4:03
4 - Starstruck - 2:57
5 - Catch The Rainbow - 15:34
6 - Mistreated - 13:02
7 - Sixteenth Century Greensleeves - 7:35
8 - Still I'm Sad - 11:01

EAC-Log, CUE-Sheed & NFO:

Click to open spoiler
Exact Audio Copy V1.3 from 2. September 2016

????? EAC ?? ??????????, ??????????? 2. ??? 2019, 15:38

Rainbow / On Stage [P40P-25017]

????????: ASUS DRW-24B3ST Adapter: 1 ID: 0

????? ?????? : ?????????????
????????????? ??????? ?????? : ??
?????????? ???? ????? : ??
????????????? ?????????? C2 : ???

????????? ???????? ??? ?????? : 6
??????????? ?????? ??????? Lead-in ? Lead-out : ???
?????????? ??????????? ??????? ??????? : ??
???????? ?????? ? ??????? ? ?????? ? ????? : ???
??? ??????????? CRC ?????????????? ??????? ?????? : ??
????????? : ?????????? Win32-????????? ??? Win NT/2000

???????? ?????? : ???????????????? ??????????
????????? ??????? : 128 kBit/s
???????? : ???????
?????????? ID3-???? : ???
??????? ?????? : C:\Program Files (x86)\Exact Audio Copy\Flac\flac.exe
?????????????? ????????? : -V -8 -T “Genre=%genre%” -T “Artist=%artist%” -T “Title=%title%” -T “Album=%albumtitle%” -T “Date=%year%” -T “Tracknumber=%tracknr%” -T “Comment=%comment%” %source%

TOC ???????????? CD

???? | ????? | ???????????? | ????????? ?????? | ???????? ??????
———————————————————————
1 | 0:00.00 | 5:29.00 | 0 | 24674
2 | 5:29.00 | 4:15.60 | 24675 | 43859
3 | 9:44.60 | 4:02.58 | 43860 | 62067
4 | 13:47.43 | 2:57.07 | 62068 | 75349
5 | 16:44.50 | 15:34.00 | 75350 | 145399
6 | 32:18.50 | 13:01.63 | 145400 | 204037
7 | 45:20.38 | 7:35.32 | 204038 | 238194
8 | 52:55.70 | 11:01.03 | 238195 | 287772

?????????????? ????????? ?????????? ? ????????? ?? ???????

????????? ????????

??? ????? Z:\Rainbow\1977 On Stage\Rainbow – On Stage [P40P-25017].wav

??????? ??????? 100.0 %
???????? ?????????? 6.3 X
???????? ????????? 100.0 %
CRC ????? 4906EF5C
CRC ????? 4906EF5C
???????????… OK

?????? ?? ?????????

AccurateRip: ??????

???? 1 ??????????? ? ???? ??????
???? 2 ??????????? ? ???? ??????
???? 3 ??????????? ? ???? ??????
???? 4 ??????????? ? ???? ??????
???? 5 ??????????? ? ???? ??????
???? 6 ??????????? ? ???? ??????
???? 7 ??????????? ? ???? ??????
???? 8 ??????????? ? ???? ??????

?? ?????? ????? ??? ? ???? AccurateRip

????? ??????

—- CUETools DB Plugin V2.1.6

[CTDB TOCID: AOSHRbT8tJs9akVJlF6ROG2ELHE-] found
Submit result: AOSHRbT8tJs9akVJlF6ROG2ELHE- has been uploaded
Track | CTDB Status
1 | (35/38) Accurately ripped
2 | (38/38) Accurately ripped
3 | (38/38) Accurately ripped
4 | (37/38) Accurately ripped
5 | (35/38) Accurately ripped
6 | (35/38) Accurately ripped
7 | (34/38) Accurately ripped
8 | ( 1/38) Accurately ripped, or (31/38) differs in 5 samples @08:23:15, or (1/38) differs in 5 samples @08:23:15
If you are sure that your rip contains errors, you can use CUETools to repair it.

==== ??????????? ????? ?????? 4BB28AAB607B19BB06A7A23717C9D94BE83E311170EF89CD8A239CDCA5C05E43 ====

REM GENRE “Hard Rock”
REM DATE 1977
REM DISCID 630EFC08
REM COMMENT “ExactAudioCopy v1.3”
CATALOG 0000000000000
PERFORMER “Rainbow”
TITLE “On Stage [P40P-25017]”
REM COMPOSER “”
FILE “Rainbow – On Stage [P40P-25017].flac” WAVE
TRACK 01 AUDIO
TITLE “Intro: Over The Rainbow / Kill The King”
PERFORMER “Rainbow”
REM COMPOSER “”
INDEX 01 00:00:00
TRACK 02 AUDIO
TITLE “Man On The Silver Mountain”
PERFORMER “Rainbow”
REM COMPOSER “”
INDEX 01 05:29:00
TRACK 03 AUDIO
TITLE “Blues”
PERFORMER “Rainbow”
REM COMPOSER “”
INDEX 01 09:44:60
TRACK 04 AUDIO
TITLE “Starstruck”
PERFORMER “Rainbow”
REM COMPOSER “”
INDEX 01 13:47:43
TRACK 05 AUDIO
TITLE “Catch The Rainbow”
PERFORMER “Rainbow”
REM COMPOSER “”
INDEX 01 16:44:50
TRACK 06 AUDIO
TITLE “Mistreated”
PERFORMER “Rainbow”
REM COMPOSER “”
INDEX 01 32:18:50
TRACK 07 AUDIO
TITLE “Sixteenth Century Greensleeves”
PERFORMER “Rainbow”
REM COMPOSER “”
INDEX 01 45:20:38
TRACK 08 AUDIO
TITLE “Still I’m Sad”
PERFORMER “Rainbow”
REM COMPOSER “”
INDEX 01 52:55:70

Leave a Reply

Your email address will not be published. Required fields are marked *

This site uses Akismet to reduce spam. Learn how your comment data is processed.