Rainbow – On Stage (Deluxe Edition)




Artist: Rainbow
Year: 1977/2012
Genre: Rock
Notes: Discogs
Add. Notes: Deluxe Edition
Encoder: FLAC
Bitrate: ~1000 kBit/s (44.1 kHz/16 Bit/s)
Bin/Cue incl.: Yes
Size: 1000,24 MB
Password: “slam” (without ” “)


http://www.share-online.biz/dl/E76ZCNRP3ZTC
http://www.share-online.biz/dl/3WQYCNRP4G
https://rapidgator.net/file/41d1dfd627815b94753e0ef6357f64b6
https://rapidgator.net/file/9807326a43d01fcdb2f68afc035d0f74
https://uploadbyte.com/7krkl9qx5rsy
https://uploadbyte.com/llemihog1ycn

Tracklist:

Original Album
1 - Over The Rainbow - 0:31
2 - Kill The King - 4:59
Medley - 11:20
3A - Man On The Silver Mountain - 
3B - Blues - 
3C - Starstruck - 
4 - Catch The Rainbow - 15:40
5 - Mistreated - 13:04
6 - Sixteenth Century Greensleeves - 7:35
7 - Still I'm Sad - 11:05
Bonus Tracks Live At Osaka 9th December 1976
1 - Kill The King - 
2 - Mistreated - 
4 - Sixteenth Century Greensleeves - 
5 - Catch The Rainbow - 
Medley
6A - Man On The Silver Mountain - 
6B - Blues - 
6C - Starstruck - 
-
7 - Do You Close Your Eyes

EAC-Log, CUE-Sheed & NFO:

Click to open spoiler
Exact Audio Copy V1.0 beta 3 from 29. August 2011

EAC extraction logfile from 5. November 2013, 12:57

Rainbow / On Stage

Used drive : SONY BD RW BDX-S600U Adapter: 2 ID: 0

Read mode : Secure
Utilize accurate stream : Yes
Defeat audio cache : Yes
Make use of C2 pointers : No

Read offset correction : 48
Overread into Lead-In and Lead-Out : No
Fill up missing offset samples with silence : Yes
Delete leading and trailing silent blocks : No
Null samples used in CRC calculations : Yes
Used interface : Native Win32 interface for Win NT & 2000

Used output format : User Defined Encoder
Selected bitrate : 128 kBit/s
Quality : High
Add ID3 tag : No
Command line compressor : C:\Program Files (x86)\Exact Audio Copy\Flac\flac.exe
Additional command line options : -V -8 -T “Date=%year%” -T “Genre=%genre%” %source%

TOC of the extracted CD

Track | Start | Length | Start sector | End sector
———————————————————
1 | 0:00.00 | 5:32.48 | 0 | 24947
2 | 5:32.48 | 11:13.01 | 24948 | 75423
3 | 16:45.49 | 15:35.25 | 75424 | 145573
4 | 32:20.74 | 13:05.57 | 145574 | 204505
5 | 45:26.56 | 7:35.14 | 204506 | 238644
6 | 53:01.70 | 11:00.13 | 238645 | 288157

Range status and errors

Selected range

Filename D:\Rainbow Discography\Live\1977. Rainbow – On Stage\1977. Rainbow – On Stage Deluxe Edition (Polydor, UMC 3716816, Germany)\disc1\Rainbow – On Stage.wav

Peak level 97.0 %
Extraction speed 15.1 X
Range quality 100.0 %
Test CRC 6502CA4E
Copy CRC 6502CA4E
Copy OK

No errors occurred

AccurateRip summary

Track 1 accurately ripped (confidence 17) [7A7E12D8] (AR v2)
Track 2 accurately ripped (confidence 17) [413EF3D2] (AR v2)
Track 3 accurately ripped (confidence 17) [F5F38C4E] (AR v2)
Track 4 accurately ripped (confidence 17) [6C2B0E6D] (AR v2)
Track 5 accurately ripped (confidence 17) [B34F97FF] (AR v2)
Track 6 accurately ripped (confidence 17) [448BCF56] (AR v2)

All tracks accurately ripped

End of status report

—- CUETools DB Plugin V2.1.3

[CTDB TOCID: 1aHYM7gUF1S2J.Qfqz_gnuAAfgY-] found, Submit result: 1aHYM7gUF1S2J.Qfqz_gnuAAfgY- has been confirmed
[394f6bf5] (14/16) Accurately ripped
[c3dd9550] (02/16) Differs in 1040 samples @46:46:67-46:46:68
You can use CUETools to repair this rip.

==== Log checksum 0C512C467EAA457D048B9569138F11299FD967E91EFAD0C4A7DBD76DADDB24A9 ====

Exact Audio Copy V1.0 beta 3 from 29. August 2011

EAC extraction logfile from 5. November 2013, 13:25

Rainbow / On Stage (2012 Deluxe Edition) (CD2 – Live At Osaka, Dec. 9th, 1976)

Used drive : SONY BD RW BDX-S600U Adapter: 2 ID: 0

Read mode : Secure
Utilize accurate stream : Yes
Defeat audio cache : Yes
Make use of C2 pointers : No

Read offset correction : 48
Overread into Lead-In and Lead-Out : No
Fill up missing offset samples with silence : Yes
Delete leading and trailing silent blocks : No
Null samples used in CRC calculations : Yes
Used interface : Native Win32 interface for Win NT & 2000

Used output format : User Defined Encoder
Selected bitrate : 128 kBit/s
Quality : High
Add ID3 tag : No
Command line compressor : C:\Program Files (x86)\Exact Audio Copy\Flac\flac.exe
Additional command line options : -V -8 -T “Date=%year%” -T “Genre=%genre%” %source%

TOC of the extracted CD

Track | Start | Length | Start sector | End sector
———————————————————
1 | 0:00.00 | 5:56.22 | 0 | 26721
2 | 5:56.22 | 12:14.06 | 26722 | 81777
3 | 18:10.28 | 8:23.07 | 81778 | 119509
4 | 26:33.35 | 18:15.38 | 119510 | 201672
5 | 44:48.73 | 16:22.27 | 201673 | 275349
6 | 61:11.25 | 10:32.49 | 275350 | 322798

Range status and errors

Selected range

Filename D:\Rainbow Discography\Live\1977. Rainbow – On Stage\1977. Rainbow – On Stage Deluxe Edition (Polydor, UMC 3716816, Germany)\disc2\Rainbow – On Stage (2012 Deluxe Edition) (CD2 – Live At Osaka, Dec. 9th, 1976).wav

Peak level 97.0 %
Extraction speed 15.4 X
Range quality 100.0 %
Test CRC 0981126D
Copy CRC 0981126D
Copy OK

No errors occurred

AccurateRip summary

Track 1 accurately ripped (confidence 17) [774D7768] (AR v2)
Track 2 accurately ripped (confidence 17) [EE901AAD] (AR v2)
Track 3 accurately ripped (confidence 17) [172B48EA] (AR v2)
Track 4 accurately ripped (confidence 17) [19066646] (AR v2)
Track 5 accurately ripped (confidence 17) [605988E5] (AR v2)
Track 6 accurately ripped (confidence 15) [64348728] (AR v2)

All tracks accurately ripped

End of status report

—- CUETools DB Plugin V2.1.3

[CTDB TOCID: 2SjsqlB.HOvkz671FZ6YukH8Gp0-] found, Submit result: 2SjsqlB.HOvkz671FZ6YukH8Gp0- has been confirmed
[436d5a04] (13/14) Accurately ripped
[b1e15c5e] (01/14) No match

==== Log checksum C0C30A42031AE5CE4045FEED560490841391FB03FC9196BA1E1B5F84B93FB605 ====

REM DATE 1986
REM DISCID 460F0206
REM COMMENT “ExactAudioCopy v1.0b3”
CATALOG 0602537168149
PERFORMER “Rainbow”
TITLE “On Stage”
FILE “Rainbow – On Stage.flac” WAVE
TRACK 01 AUDIO
TITLE “Kill the King”
PERFORMER “Rainbow”
ISRC USPR37789216
INDEX 01 00:00:00
TRACK 02 AUDIO
TITLE “Medley: Man on the Silver Mountain / Blues / Starstruck”
PERFORMER “Rainbow”
INDEX 01 05:32:48
TRACK 03 AUDIO
TITLE “Catch the Rainbow”
PERFORMER “Rainbow”
ISRC USPR37789220
INDEX 00 16:43:30
INDEX 01 16:45:49
TRACK 04 AUDIO
TITLE “Mistreated”
PERFORMER “Rainbow”
ISRC USPR37789221
INDEX 00 32:18:33
INDEX 01 32:20:74
TRACK 05 AUDIO
TITLE “Sixteenth Century Greensleeves”
PERFORMER “Rainbow”
ISRC USPR37789222
INDEX 00 45:24:63
INDEX 01 45:26:56
TRACK 06 AUDIO
TITLE “Still I’m Sad”
PERFORMER “Rainbow”
INDEX 01 53:01:70

REM GENRE “Hard Rock”
REM DATE 2012
REM DISCID 5610CF06
REM COMMENT “ExactAudioCopy v1.0b3”
CATALOG 0602537168156
PERFORMER “Rainbow”
TITLE “On Stage (2012 Deluxe Edition) (CD2 – Live At Osaka, Dec. 9th, 1976)”
FILE “Rainbow – On Stage (2012 Deluxe Edition) (CD2 – Live At Osaka, Dec. 9th, 1976).flac” WAVE
TRACK 01 AUDIO
TITLE “Kill The King”
PERFORMER “Rainbow”
ISRC GBUM71205524
INDEX 01 00:00:00
TRACK 02 AUDIO
TITLE “Mistreated”
PERFORMER “Rainbow”
INDEX 01 05:56:22
TRACK 03 AUDIO
TITLE “Sixteenth Century Greensleeves”
PERFORMER “Rainbow”
INDEX 01 18:10:28
TRACK 04 AUDIO
TITLE “Catch The Rainbow”
PERFORMER “Rainbow”
INDEX 01 26:33:35
TRACK 05 AUDIO
TITLE “Medley: Man On The Silver Mountain~Blues~Starstruck”
PERFORMER “Rainbow”
INDEX 01 44:48:73
TRACK 06 AUDIO
TITLE “Do You Close Your Eyes”
PERFORMER “Rainbow”
INDEX 01 61:11:25

Leave a Reply

Your email address will not be published. Required fields are marked *

This site uses Akismet to reduce spam. Learn how your comment data is processed.