Rainbow – Long Live Rock ‘n’ Roll (Japanese Edition)




Artist: Rainbow
Year: 1978/1986
Genre: Rock
Notes: Discogs
Add. Notes: Japanese Edition
Cover incl.: Yes
Encoder: FLAC
Bitrate: ~800 kBit/s (44.1 kHz/16 Bit/s)
Log & Cue incl.: Yes
Size: 226,6 MB
Password: “slam” (without ” “)


All Downloads/Hosters are compatible

Download 1
Turbobit.net
Rapidgator.net
UploadEver.com
JustUpload.io
UsersDrive.com
Download 2
Turbobit.net
Rapidgator.net
UploadEver.com
JustUpload.io
UsersDrive.com
Download 3
Turbobit.net
Rapidgator.net
UploadEver.com
JustUpload.io
UsersDrive.com

Tracklist:

1 - Long Live Rock 'N' Roll - 4:20
2 - Lady Of The Lake - 3:37
3 - L. A. Connection - 4:58
4 - Gates Of Babylon - 6:47
5 - Kill The King - 4:27
6 - The Shed (Subtle) - 4:45
7 - Sensitive To Light - 3:02
8 - Rainbow Eyes - 7:31

EAC-Log, CUE-Sheed & NFO:

Click to open spoiler
Exact Audio Copy V1.0 beta 3 from 29. August 2011

Отчёт EAC об извлечении, выполненном 23. февраля 2013, 19:33

Rainbow / Long Live Rock ‘n’ Roll [P33P-25020]

Дисковод: ASUS DRW-2014S1 Adapter: 1 ID: 0

Режим чтения : Достоверность
Использование точного потока : Да
Отключение кэша аудио : Да
Использование указателей C2 : Нет

Коррекция смещения при чтении : 6
Способность читать области Lead-in и Lead-out : Нет
Заполнение пропущенных сэмплов тишиной : Да
Удаление блоков с тишиной в начале и конце : Нет
При вычислениях CRC использовались нулевые сэмплы : Да
Интерфейс : Встроенный Win32-интерфейс для Win NT/2000

Выходной формат : Пользовательский кодировщик
Выбранный битрейт : 128 kBit/s
Качество : Высокий
Добавление ID3-тега : Нет
Утилита сжатия : C:\Program Files\Exact Audio Copy\Flac\flac.exe
Дополнительные параметры : -V -8 -T “Date=%year%” -T “Genre=%genre%” %source%

TOC извлечённого CD

Трек | Старт | Длительность | Начальный сектор | Конечный сектор
———————————————————————
1 | 0:00.37 | 4:16.15 | 37 | 19251
2 | 4:16.52 | 3:40.33 | 19252 | 35784
3 | 7:57.10 | 4:52.70 | 35785 | 57754
4 | 12:50.05 | 6:48.15 | 57755 | 88369
5 | 19:38.20 | 4:30.57 | 88370 | 108676
6 | 24:09.02 | 4:48.30 | 108677 | 130306
7 | 28:57.32 | 3:03.35 | 130307 | 144066
8 | 32:00.67 | 7:02.35 | 144067 | 175751

Характеристики диапазона извлечения и сообщения об ошибках

Выбранный диапазон

Имя файла Y:\Музыка\Rainbow\1978 Long Live Rock ‘n’ Roll\Rainbow – Long Live Rock ‘n’ Roll [P33P-25020].wav

Пиковый уровень 96.3 %
Скорость извлечения 2.4 X
Качество диапазона 100.0 %
CRC теста 66FA0D0F
CRC копии 66FA0D0F
Копирование… OK

Ошибок не произошло

AccurateRip: сводка

Трек 1 : извлечено точно (доверие 8) [4155357D] (AR v1)
Трек 2 : извлечено точно (доверие 7) [CADB56E2] (AR v1)
Трек 3 : извлечено точно (доверие 7) [D02F6CCF] (AR v1)
Трек 4 : извлечено точно (доверие 7) [3F4FC083] (AR v1)
Трек 5 : извлечено точно (доверие 7) [B92A2715] (AR v1)
Трек 6 : извлечено точно (доверие 7) [B1DFC776] (AR v1)
Трек 7 : извлечено точно (доверие 7) [4A714DCC] (AR v1)
Трек 8 : извлечено точно (доверие 7) [F693A11A] (AR v1)

Все треки извлечены точно

Конец отчёта

==== Контрольная сумма отчёта ECA187F667A1F56792C63CA6865103EA8832097A15AC971F11060995F4D576D6 ====

REM GENRE “Hard Rock”
REM DATE 1978
REM DISCID 6C092708
REM COMMENT “ExactAudioCopy v1.0b3”
PERFORMER “Rainbow”
TITLE “Long Live Rock ‘n’ Roll [P33P-25020]”
FILE “Rainbow – Long Live Rock ‘n’ Roll [P33P-25020].flac” WAVE
TRACK 01 AUDIO
TITLE “Long Live Rock ‘n’ Roll”
PERFORMER “Rainbow”
INDEX 00 00:00:00
INDEX 01 00:00:37
TRACK 02 AUDIO
TITLE “Lady Of The Lake”
PERFORMER “Rainbow”
INDEX 00 04:14:25
INDEX 01 04:16:52
TRACK 03 AUDIO
TITLE “L.A. Connection”
PERFORMER “Rainbow”
INDEX 00 07:54:50
INDEX 01 07:57:10
TRACK 04 AUDIO
TITLE “Gates Of Babylon”
PERFORMER “Rainbow”
INDEX 00 12:47:40
INDEX 01 12:50:05
TRACK 05 AUDIO
TITLE “Kill The King”
PERFORMER “Rainbow”
INDEX 00 19:36:07
INDEX 01 19:38:20
TRACK 06 AUDIO
TITLE “The Shed (Subtle)”
PERFORMER “Rainbow”
INDEX 00 24:06:27
INDEX 01 24:09:02
TRACK 07 AUDIO
TITLE “Sensitive To Light”
PERFORMER “Rainbow”
INDEX 00 28:54:52
INDEX 01 28:57:32
TRACK 08 AUDIO
TITLE “Rainbow Eyes”
PERFORMER “Rainbow”
INDEX 00 31:58:57
INDEX 01 32:00:67

Leave a Reply

Your email address will not be published. Required fields are marked *

This site uses Akismet to reduce spam. Learn how your comment data is processed.