Rainbow – Long Live Rock ‘N’ Roll (Deluxe Edition)




Artist: Rainbow
Year: 1978/2012
Genre: Rock
Notes: Discogs
Add. Notes: Deluxe Edition
Encoder: FLAC
Bitrate: ~900 kBit/s (44.1 kHz/16 Bit/s)
Bin/Cue incl.: Yes
Size: 814,58 MB
Password: “slam” (without ” “)


http://www.share-online.biz/dl/Y2WXCNRPRJ
http://www.share-online.biz/dl/ZPJXCNRPFQ5
https://rapidgator.net/file/71113697b49b0c2db1602582a64538cc
https://rapidgator.net/file/c5de78d08549285907513aa5eb7d53c9
https://uploadbyte.com/3a3ib22isup8
https://uploadbyte.com/afwlv93t5u59

Tracklist:

1-1 - Long Live Rock'N'Roll - 4:21
1-2 - Lady Of The Lake - 3:39
1-3 - L. A. Connection - 5:02
1-4 - Gates Of Babylon - 6:49
1-5 - Kill The King - 4:29
1-6 - The Shed (Subtle) - 4:47
1-7 - Sensitive To Light - 3:07
1-8 - Rainbow Eyes - 7:11
Rough Mixes, 4th July 1977
2-1 - Lady Of The Lake - 3:50
2-2 - Sensitive To Light - 3:03
2-3 - L.A. Connection - 5:33
2-4 - Kill The King - 4:27
2-5 - The Shed (Subtle) - 3:36
2-6 - Long Live Rock'N'Roll - 4:19
2-7 - Rainbow Eyes - 7:01
Shepperton Film Studios Rehersal, August 1977
2-8 - Long Live Rock'N'Roll (Take 1) - 6:56
2-9 - Kill The King - 4:42
Don Kirshner's Rock Concert With Alternative Vocals, 
Aired 6th October 1978
2-10 - Long Live Rock'N'Roll - 3:31
2-11 - L.A. Connection - 5:10
2-12 - Gates Of Babylon - 6:35
2-13 - L.A. Connection (Outtake Version) - 5:11
2-14 - Gates Of Babylon (Outtake Version) - 6:43

EAC-Log, CUE-Sheed & NFO:

Click to open spoiler
Exact Audio Copy V1.0 beta 3 from 29. August 2011

EAC extraction logfile from 15. October 2013, 12:51

Rainbow / Long Live Rock & Roll

Used drive : SONY BD RW BDX-S600U Adapter: 2 ID: 0

Read mode : Secure
Utilize accurate stream : Yes
Defeat audio cache : Yes
Make use of C2 pointers : No

Read offset correction : 48
Overread into Lead-In and Lead-Out : No
Fill up missing offset samples with silence : Yes
Delete leading and trailing silent blocks : No
Null samples used in CRC calculations : Yes
Used interface : Native Win32 interface for Win NT & 2000

Used output format : User Defined Encoder
Selected bitrate : 128 kBit/s
Quality : High
Add ID3 tag : No
Command line compressor : C:\Program Files (x86)\Exact Audio Copy\Flac\flac.exe
Additional command line options : -V -8 -T “Date=%year%” -T “Genre=%genre%” %source%

TOC of the extracted CD

Track | Start | Length | Start sector | End sector
———————————————————
1 | 0:00.00 | 4:23.46 | 0 | 19770
2 | 4:23.46 | 3:37.40 | 19771 | 36085
3 | 8:01.11 | 4:58.12 | 36086 | 58447
4 | 12:59.23 | 6:47.39 | 58448 | 89011
5 | 19:46.62 | 4:28.57 | 89012 | 109168
6 | 24:15.44 | 4:46.25 | 109169 | 130643
7 | 29:01.69 | 3:02.38 | 130644 | 144331
8 | 32:04.32 | 7:21.42 | 144332 | 177448

Range status and errors

Selected range

Filename D:\Rainbow Discography\Studio\1978. Rainbow – Long Live Rock ‘N’ Roll\1978. Rainbow – Long Live Rock ‘N’ Roll Deluxe Edition (Polydor, UMC, 5340480, UK)\disc1\Rainbow – Long Live Rock & Roll.wav

Peak level 96.0 %
Extraction speed 6.2 X
Range quality 100.0 %
Test CRC 52BD30DA
Copy CRC 52BD30DA
Copy OK

No errors occurred

AccurateRip summary

Track 1 accurately ripped (confidence 17) [7D6EC3C7] (AR v2)
Track 2 accurately ripped (confidence 17) [74C7DFB2] (AR v2)
Track 3 accurately ripped (confidence 17) [9DB54BF8] (AR v2)
Track 4 accurately ripped (confidence 17) [C09CBEFC] (AR v2)
Track 5 accurately ripped (confidence 17) [99A60020] (AR v2)
Track 6 accurately ripped (confidence 17) [BBE36699] (AR v2)
Track 7 accurately ripped (confidence 17) [E8C2EB77] (AR v2)
Track 8 accurately ripped (confidence 17) [EC9D2E80] (AR v2)

All tracks accurately ripped

End of status report

—- CUETools DB Plugin V2.1.3

[CTDB TOCID: fp7REcEXxtXbC6FHJUWqr5HaOOs-] found, Submit result: fp7REcEXxtXbC6FHJUWqr5HaOOs- has been confirmed
[b5c4f632] (19/19) Accurately ripped

==== Log checksum CDA41A5BCED35F644D37718A0A62B10F8E9B78A81262940A504DD62F1F0A42D8 ====

Exact Audio Copy V1.0 beta 3 from 29. August 2011

EAC extraction logfile from 15. October 2013, 13:17

RAINBOW / Long Live Rock ‘n’ Roll: DELUXE EDITION (Disc 2: bonus tracks)

Used drive : SONY BD RW BDX-S600U Adapter: 2 ID: 0

Read mode : Secure
Utilize accurate stream : Yes
Defeat audio cache : Yes
Make use of C2 pointers : No

Read offset correction : 48
Overread into Lead-In and Lead-Out : No
Fill up missing offset samples with silence : Yes
Delete leading and trailing silent blocks : No
Null samples used in CRC calculations : Yes
Used interface : Native Win32 interface for Win NT & 2000

Used output format : User Defined Encoder
Selected bitrate : 128 kBit/s
Quality : High
Add ID3 tag : No
Command line compressor : C:\Program Files (x86)\Exact Audio Copy\Flac\flac.exe
Additional command line options : -V -8 -T “Date=%year%” -T “Genre=%genre%” %source%

TOC of the extracted CD

Track | Start | Length | Start sector | End sector
———————————————————
1 | 0:00.00 | 3:52.50 | 0 | 17449
2 | 3:52.50 | 3:04.62 | 17450 | 31311
3 | 6:57.37 | 5:35.01 | 31312 | 56437
4 | 12:32.38 | 4:29.53 | 56438 | 76665
5 | 17:02.16 | 3:38.30 | 76666 | 93045
6 | 20:40.46 | 4:20.72 | 93046 | 112617
7 | 25:01.43 | 6:56.64 | 112618 | 143881
8 | 31:58.32 | 6:59.62 | 143882 | 175368
9 | 38:58.19 | 4:45.49 | 175369 | 196792
10 | 43:43.68 | 3:33.53 | 196793 | 212820
11 | 47:17.46 | 5:12.11 | 212821 | 236231
12 | 52:29.57 | 6:37.49 | 236232 | 266055
13 | 59:07.31 | 5:12.62 | 266056 | 289517
14 | 64:20.18 | 6:43.52 | 289518 | 319794

Range status and errors

Selected range

Filename D:\Rainbow Discography\Studio\1978. Rainbow – Long Live Rock ‘N’ Roll\1978. Rainbow – Long Live Rock ‘N’ Roll Deluxe Edition (Polydor, UMC, 5340480, UK)\disc2\RAINBOW – Long Live Rock ‘n’ Roll- DELUXE EDITION (Disc 2- bonus tracks).wav

Peak level 98.2 %
Extraction speed 15.3 X
Range quality 100.0 %
Test CRC F6319F95
Copy CRC F6319F95
Copy OK

No errors occurred

AccurateRip summary

Track 1 accurately ripped (confidence 15) [8CFE5B98] (AR v2)
Track 2 accurately ripped (confidence 16) [26A8DFF1] (AR v2)
Track 3 accurately ripped (confidence 16) [13946260] (AR v2)
Track 4 accurately ripped (confidence 16) [7FF3CF33] (AR v2)
Track 5 accurately ripped (confidence 16) [EEA6E68B] (AR v2)
Track 6 accurately ripped (confidence 16) [AAA5B122] (AR v2)
Track 7 accurately ripped (confidence 16) [49E6516B] (AR v2)
Track 8 accurately ripped (confidence 16) [94CABB9D] (AR v2)
Track 9 accurately ripped (confidence 16) [4235BBD1] (AR v2)
Track 10 accurately ripped (confidence 16) [59A0A773] (AR v2)
Track 11 accurately ripped (confidence 16) [A46011DF] (AR v2)
Track 12 accurately ripped (confidence 16) [F596E3B5] (AR v2)
Track 13 accurately ripped (confidence 15) [F40E31E6] (AR v2)
Track 14 accurately ripped (confidence 16) [AD33EC1D] (AR v2)

All tracks accurately ripped

End of status report

—- CUETools DB Plugin V2.1.3

[CTDB TOCID: i4h7lOo3OvTTWah0Tp9NSE1F6IU-] found, Submit result: i4h7lOo3OvTTWah0Tp9NSE1F6IU- has been confirmed
[8f53febc] (01/19) No match
[b84c8fcf] (18/19) Accurately ripped

==== Log checksum C093BA7FC4637D252D96CA3D199492BBE0249BED33FFD72BC5C8279F2BD8BAFE ====

REM GENRE Rock
REM DATE 1978
REM DISCID 72093D08
REM COMMENT “ExactAudioCopy v1.0b3”
PERFORMER “Rainbow”
TITLE “Long Live Rock & Roll”
FILE “Rainbow – Long Live Rock & Roll.flac” WAVE
TRACK 01 AUDIO
TITLE “Long Live Rock & Roll”
PERFORMER “Rainbow”
INDEX 01 00:00:00
TRACK 02 AUDIO
TITLE “Lady Of The Lake”
PERFORMER “Rainbow”
INDEX 00 04:21:55
INDEX 01 04:23:46
TRACK 03 AUDIO
TITLE “L.A. Connection”
PERFORMER “Rainbow”
INDEX 00 08:00:28
INDEX 01 08:01:11
TRACK 04 AUDIO
TITLE “Gates Of Babylon”
PERFORMER “Rainbow”
INDEX 00 12:58:02
INDEX 01 12:59:23
TRACK 05 AUDIO
TITLE “Kill The King”
PERFORMER “Rainbow”
INDEX 00 19:46:04
INDEX 01 19:46:62
TRACK 06 AUDIO
TITLE “The Shed (Subtle)”
PERFORMER “Rainbow”
INDEX 00 24:14:13
INDEX 01 24:15:44
TRACK 07 AUDIO
TITLE “Sensitive To Light”
PERFORMER “Rainbow”
INDEX 00 29:01:04
INDEX 01 29:01:69
TRACK 08 AUDIO
TITLE “Rainbow Eyes”
PERFORMER “Rainbow”
INDEX 00 32:03:03
INDEX 01 32:04:32

REM GENRE “Hard Rock”
REM DATE 1978
REM DISCID AE10A70E
REM COMMENT “ExactAudioCopy v1.0b3”
PERFORMER “RAINBOW”
TITLE “Long Live Rock ‘n’ Roll: DELUXE EDITION (Disc 2: bonus tracks)”
FILE “RAINBOW – Long Live Rock ‘n’ Roll- DELUXE EDITION (Disc 2- bonus tracks).flac” WAVE
TRACK 01 AUDIO
TITLE “Lady Of The Lake (Rough Mix,4th July1977)”
PERFORMER “RAINBOW”
INDEX 01 00:00:00
TRACK 02 AUDIO
TITLE “Sensitive To Light (Rough Mix,4th July1977)”
PERFORMER “RAINBOW”
INDEX 00 03:50:67
INDEX 01 03:52:50
TRACK 03 AUDIO
TITLE “L.A. Connection (Rough Mix,4th July1977)”
PERFORMER “RAINBOW”
INDEX 00 06:55:54
INDEX 01 06:57:37
TRACK 04 AUDIO
TITLE “Kill The King (Rough Mix,4th July1977)”
PERFORMER “RAINBOW”
INDEX 00 12:30:55
INDEX 01 12:32:38
TRACK 05 AUDIO
TITLE “The Shed (Subtle) (Rough Mix,4th July1977)”
PERFORMER “RAINBOW”
INDEX 00 17:00:33
INDEX 01 17:02:16
TRACK 06 AUDIO
TITLE “Long Live Rock ‘n’ Roll (Rough Mix,4th July1977)”
PERFORMER “RAINBOW”
INDEX 00 20:38:63
INDEX 01 20:40:46
TRACK 07 AUDIO
TITLE “Rainbow Eyes (Rough Mix,4th July1977)”
PERFORMER “RAINBOW”
INDEX 00 24:59:60
INDEX 01 25:01:43
TRACK 08 AUDIO
TITLE “Long Live Rock ‘N’ Roll (take 1) (Shepperton Film Studios rehearsal, August …”
PERFORMER “RAINBOW”
INDEX 00 31:57:12
INDEX 01 31:58:32
TRACK 09 AUDIO
TITLE “Kill The King (Shepperton Film Studios rehearsal, August 1977)”
PERFORMER “RAINBOW”
INDEX 00 38:54:67
INDEX 01 38:58:19
TRACK 10 AUDIO
TITLE “Long Live Rock ‘n’ Roll (Don Kirshner’s Rock Concert with alternative vocals,…”
PERFORMER “RAINBOW”
INDEX 00 43:40:47
INDEX 01 43:43:68
TRACK 11 AUDIO
TITLE “L.A. Connection (Don Kirshner’s Rock Concert with alternative vocals, aired 6…”
PERFORMER “RAINBOW”
INDEX 00 47:15:61
INDEX 01 47:17:46
TRACK 12 AUDIO
TITLE “Gates Of Babylon (Don Kirshner’s Rock Concert with alternative vocals, aired …”
PERFORMER “RAINBOW”
INDEX 00 52:27:73
INDEX 01 52:29:57
TRACK 13 AUDIO
TITLE “L.A. Connection (outtake version) (Don Kirshner’s Rock Concert with alternati…”
PERFORMER “RAINBOW”
INDEX 00 59:05:49
INDEX 01 59:07:31
TRACK 14 AUDIO
TITLE “Gates Of Babylon (outtake version) (Don Kirshner’s Rock Concert with alternat…”
PERFORMER “RAINBOW”
INDEX 00 64:18:54
INDEX 01 64:20:18

Leave a Reply

Your email address will not be published. Required fields are marked *

This site uses Akismet to reduce spam. Learn how your comment data is processed.