Rainbow – Live In Germany 1976 (Japanese Edition)




Artist: Rainbow
Year: 1976/1990
Genre: Rock
Notes: Discogs
Add. Notes: Japanese Edition
Encoder: FLAC
Bitrate: ~800 kBit/s (44.1 kHz/16 Bit/s)
Bin/Cue incl.: Yes
Size: 546,82 MB
Password: “slam” (without ” “)


http://www.share-online.biz/dl/13K4EVRPUEUS
http://www.share-online.biz/dl/0ZS4EVRPI2I5

https://rapidgator.net/file/370683c49848d2f3b263b07f3962e51b
https://rapidgator.net/file/e60843c636580aac712250e46490bd31

https://uploadbyte.com/4b5w682e8wpd
https://uploadbyte.com/dxfmgyzcfudi

https://uploadever.com/338w526bvhg5
https://uploadever.com/q32n9f9k3cxz

https://justupload.io/7lno1yai9zz9
https://justupload.io/cq2whgq3t3yq

Tracklist:

1-1 - Kill The King - 5:25
1-2 - Mistreated - 16:00
1-3 - Sixteenth Century Greensleeves - 7:50
1-4 - Catch The Rainbow - 14:50
2-1 - Man On The Silver Mountain - 13:37
2-2 - Stargazer - 17:10
2-3 - Still I'm Sad - 15:00
2-4 - Do You Close Your Eyes - 9:45

EAC-Log, CUE-Sheed & NFO:

Click to open spoiler
Exact Audio Copy V0.99 prebeta 5 from 4. May 2009

Отчёт EAC об извлечении, выполненном 16. августа 2011, 17:41

Rainbow / Live In Germany 1976 (Disc1) [TECP-40780~1]

Дисковод: HL-DT-STDVDRAM GT30N Adapter: 0 ID: 0

Режим чтения : Достоверность
Использование точного потока : Да
Отключение кэша аудио : Да
Использование указателей C2 : Нет

Коррекция смещения при чтении : 103
Способность читать области Lead-in и Lead-out : Нет
Заполнение пропущенных сэмплов тишиной : Да
Удаление блоков с тишиной в начале и конце : Нет
При вычислениях CRC использовались нулевые сэмплы : Да
Интерфейс : Встроенный Win32-интерфейс для Win NT/2000

Выходной формат : Пользовательский кодировщик
Выбранный битрейт : 128 kBit/s
Качество : Высокий
Добавление ID3-тэга : Нет
Утилита сжатия : C:\Program Files (x86)\Exact Audio Copy\Flac\flac.exe
Дополнительные параметры : -8 -V -T “artist=%a” -T “title=%t” -T “album=%g” -T “date=%y” -T “tracknumber=%n” -T “genre=%m” -T “comment=EAC

TOC извлечённого CD

Трек | Старт | Длительность | Начальный сектор | Конечный сектор
———————————————————————
1 | 0:00.00 | 5:32.73 | 0 | 24972
2 | 5:32.73 | 15:40.65 | 24973 | 95537
3 | 21:13.63 | 8:07.22 | 95538 | 132084
4 | 29:21.10 | 14:46.15 | 132085 | 198549

Характеристики диапазона извлечения и сообщения об ошибках

Выбранный диапазон

Имя файла Y:\Музыка\Rainbow\1991 Live In Germany 1976\Rainbow – Live In Germany 1976 (Disc1) [TECP-40780~81].wav

Пиковый уровень 100.0 %
Качество диапазона 99.9 %
CRC теста 9E01762B
CRC копии 9E01762B
Копирование… OK

Ошибок не произошло

AccurateRip: сводка

Трек 1 нет в базе данных
Трек 2 нет в базе данных
Трек 3 нет в базе данных
Трек 4 нет в базе данных

Ни одного трека нет в базе AccurateRip

Конец отчёта
Exact Audio Copy V0.99 prebeta 5 from 4. May 2009

Отчёт EAC об извлечении, выполненном 16. августа 2011, 18:37

Rainbow / Live In Germany 1976 (Disk2) [TECP-40780~1]

Дисковод: HL-DT-STDVDRAM GT30N Adapter: 0 ID: 0

Режим чтения : Достоверность
Использование точного потока : Да
Отключение кэша аудио : Да
Использование указателей C2 : Нет

Коррекция смещения при чтении : 103
Способность читать области Lead-in и Lead-out : Нет
Заполнение пропущенных сэмплов тишиной : Да
Удаление блоков с тишиной в начале и конце : Нет
При вычислениях CRC использовались нулевые сэмплы : Да
Интерфейс : Встроенный Win32-интерфейс для Win NT/2000

Выходной формат : Пользовательский кодировщик
Выбранный битрейт : 128 kBit/s
Качество : Высокий
Добавление ID3-тэга : Нет
Утилита сжатия : C:\Program Files (x86)\Exact Audio Copy\Flac\flac.exe
Дополнительные параметры : -8 -V -T “artist=%a” -T “title=%t” -T “album=%g” -T “date=%y” -T “tracknumber=%n” -T “genre=%m” -T “comment=EAC

TOC извлечённого CD

Трек | Старт | Длительность | Начальный сектор | Конечный сектор
———————————————————————
1 | 0:00.00 | 13:35.35 | 0 | 61159
2 | 13:35.35 | 17:00.35 | 61160 | 137694
3 | 30:35.70 | 15:05.35 | 137695 | 205604
4 | 45:41.30 | 10:08.20 | 205605 | 251224

Характеристики диапазона извлечения и сообщения об ошибках

Выбранный диапазон

Имя файла Y:\Музыка\Rainbow\1991 Live In Germany 1976\Rainbow – Live In Germany 1976 (Disk2) [TECP-40780~81].wav

Пиковый уровень 95.8 %
Качество диапазона 100.0 %
CRC теста 693FFCBE
CRC копии 693FFCBE
Копирование… OK

Ошибок не произошло

AccurateRip: сводка

Трек 1 нет в базе данных
Трек 2 нет в базе данных
Трек 3 нет в базе данных
Трек 4 нет в базе данных

Ни одного трека нет в базе AccurateRip

Конец отчёта
REM GENRE “Hard Rock”
REM DATE 1991
REM DISCID 2C0A5704
REM COMMENT “ExactAudioCopy v0.99pb5”
PERFORMER “Rainbow”
TITLE “Live In Germany 1976 (Disc1) [TECP-40780~81]”
FILE “Rainbow – Live In Germany 1976 (Disc1) [TECP-40780~81].flac” WAVE
TRACK 01 AUDIO
TITLE “Kill The King ”
PERFORMER “Rainbow”
INDEX 01 00:00:00
TRACK 02 AUDIO
TITLE “Mistreated”
PERFORMER “Rainbow”
INDEX 00 05:30:03
INDEX 01 05:32:73
TRACK 03 AUDIO
TITLE “Sixteenth Century Greensleeves ”
PERFORMER “Rainbow”
INDEX 00 21:13:13
INDEX 01 21:13:63
TRACK 04 AUDIO
TITLE “Catch The Rainbow”
PERFORMER “Rainbow”
INDEX 00 29:13:40
INDEX 01 29:21:10

REM GENRE “Hard Rock”
REM DATE 1991
REM DISCID 350D1504
REM COMMENT “ExactAudioCopy v0.99pb5”
PERFORMER “Rainbow”
TITLE “Live In Germany 1976 (Disk2) [TECP-40780~81]”
FILE “Rainbow – Live In Germany 1976 (Disk2) [TECP-40780~81].flac” WAVE
TRACK 01 AUDIO
TITLE “Man On The Silver Mountain ”
PERFORMER “Rainbow”
INDEX 01 00:00:00
TRACK 02 AUDIO
TITLE “Stargazer ”
PERFORMER “Rainbow”
INDEX 00 13:33:10
INDEX 01 13:35:35
TRACK 03 AUDIO
TITLE “Still I’m Sad ”
PERFORMER “Rainbow”
INDEX 00 30:35:13
INDEX 01 30:35:70
TRACK 04 AUDIO
TITLE “Do You Close Your Eyes ”
PERFORMER “Rainbow”
INDEX 00 45:39:00
INDEX 01 45:41:30

Leave a Reply

Your email address will not be published. Required fields are marked *

This site uses Akismet to reduce spam. Learn how your comment data is processed.