Rainbow – Down To Earth (Deluxe Edition)




Artist: Rainbow
Year: 1979/2011
Genre: Rock
Notes: Discogs
Add. Notes: Deluxe Edition
Encoder: FLAC
Bitrate: ~1000 kBit/s (44.1 kHz/16 Bit/s)
Bin/Cue incl.: Yes
Size: 882,11 MB
Password: “slam” (without ” “)


http://www.share-online.biz/dl/39CXCNRPNWK
http://www.share-online.biz/dl/ALHWCNRPPQ0
https://rapidgator.net/file/5430450d18f5c7f5962edfcc362c01b5
https://rapidgator.net/file/85df1f2cf74edc3d2f1f4950eaf91af6
https://uploadbyte.com/7j09v7vt3x5x
https://uploadbyte.com/x6pc89bdoze4

Tracklist:

Original Album
1-1 - All Night Long - 3:55
1-2 - Eyes Of The World - 6:43
1-3 - No TIme To Lose - 3:46
1-4 - Makin' Love - 4:40
1-5 - Since You've Been Gone - 3:21
1-6 - Loves No Friend - 4:56
1-7 - Danger Zone - 4:32
1-8 - Lost In Hollywood - 4:55
1-9 - Bad Girl (7" Single B-Side) - 4:51
1-10 - Weiss Heim (7" Single B-Side) - 5:15
Down To Earth - A Work In Progress
Previously Unreleased Bonus Tracks
2-1 - All Night Long (Instrumental Outtake) - 4:44
2-2 - Eyes Of The World (Instrumental Outtake) - 6:52
2-3 - Spark Don't Mean A Fire - 3:53
2-4 - Makin' Love (Instrumental Outtake) - 4:46
2-5 - Since You Been Gone (Instrumental Outtake) - 4:03
2-6 - Ain't A Lot Of Love In The Heart Of Me - 5:00
2-7 - Danger Zone (Instrumental Outtake) - 5:32
2-8 - Lost In Hollywood (Instrumental Outtake) - 4:03
2-9 - Bad Girl (Instrumental Outtake) - 5:04
2-10 - Ain't A Lot Of Love In The Heart Of Me 
(Alternative Outtake) - 5:24
2-11 - Eyes Of The World (Instrumental Outtake Take 
2) - 6:11
2-12 - All Night Long (Cozy Powell Mix) - 3:55

EAC-Log, CUE-Sheed & NFO:

Click to open spoiler
Exact Audio Copy V1.0 beta 3 from 29. August 2011

EAC extraction logfile from 21. October 2013, 13:26

Rainbow / Down To Earth Deluxe Edition cd1

Used drive : Optiarc DVD RW AD-7240S Adapter: 1 ID: 1

Read mode : Secure
Utilize accurate stream : Yes
Defeat audio cache : Yes
Make use of C2 pointers : No

Read offset correction : 48
Overread into Lead-In and Lead-Out : No
Fill up missing offset samples with silence : Yes
Delete leading and trailing silent blocks : No
Null samples used in CRC calculations : Yes
Used interface : Native Win32 interface for Win NT & 2000

Used output format : User Defined Encoder
Selected bitrate : 128 kBit/s
Quality : High
Add ID3 tag : No
Command line compressor : C:\Program Files (x86)\Exact Audio Copy\Flac\flac.exe
Additional command line options : -V -8 -T “Date=%year%” -T “Genre=%genre%” %source%

TOC of the extracted CD

Track | Start | Length | Start sector | End sector
———————————————————
1 | 0:00.00 | 3:55.07 | 0 | 17631
2 | 3:55.07 | 6:43.17 | 17632 | 47873
3 | 10:38.24 | 3:45.55 | 47874 | 64803
4 | 14:24.04 | 4:39.49 | 64804 | 85777
5 | 19:03.53 | 3:21.16 | 85778 | 100868
6 | 22:24.69 | 4:55.54 | 100869 | 123047
7 | 27:20.48 | 4:32.26 | 123048 | 143473
8 | 31:52.74 | 4:54.40 | 143474 | 165563
9 | 36:47.39 | 4:51.11 | 165564 | 187399
10 | 41:38.50 | 5:14.60 | 187400 | 211009

Range status and errors

Selected range

Filename D:\Rainbow Discography\Studio\1979. Rainbow – Down To Earth\Rainbow – Down To Earth Deluxe Edition cd1.wav

Peak level 96.8 %
Extraction speed 3.8 X
Range quality 100.0 %
Test CRC 2407BF57
Copy CRC 2407BF57
Copy OK

No errors occurred

AccurateRip summary

Track 1 accurately ripped (confidence 24) [05896BCB] (AR v2)
Track 2 accurately ripped (confidence 24) [5E645CB9] (AR v2)
Track 3 accurately ripped (confidence 24) [E3E79EB9] (AR v2)
Track 4 accurately ripped (confidence 24) [CFDF6A14] (AR v2)
Track 5 accurately ripped (confidence 24) [6FD94BF9] (AR v2)
Track 6 accurately ripped (confidence 24) [31FE44EC] (AR v2)
Track 7 accurately ripped (confidence 24) [014CF4B6] (AR v2)
Track 8 accurately ripped (confidence 24) [9B60EB14] (AR v2)
Track 9 accurately ripped (confidence 24) [685CBB9B] (AR v2)
Track 10 accurately ripped (confidence 24) [1C95F845] (AR v2)

All tracks accurately ripped

End of status report

—- CUETools DB Plugin V2.1.3

[CTDB TOCID: IjSZrXYqA3HwH9FUKy49NBG9_c0-] found, Submit result: IjSZrXYqA3HwH9FUKy49NBG9_c0- has been confirmed
[28134f98] (24/24) Accurately ripped

==== Log checksum 543257A5B00233037E76344F168265480455F61C1809C7E0EE625CFFEFE26F62 ====

Exact Audio Copy V1.0 beta 3 from 29. August 2011

EAC extraction logfile from 21. October 2013, 13:19

Rainbow / Down To Earth [2011 Deluxe CD2 – A Work In Progress]

Used drive : SONY BD RW BDX-S600U Adapter: 2 ID: 0

Read mode : Secure
Utilize accurate stream : Yes
Defeat audio cache : Yes
Make use of C2 pointers : No

Read offset correction : 48
Overread into Lead-In and Lead-Out : No
Fill up missing offset samples with silence : Yes
Delete leading and trailing silent blocks : No
Null samples used in CRC calculations : Yes
Used interface : Native Win32 interface for Win NT & 2000

Used output format : User Defined Encoder
Selected bitrate : 128 kBit/s
Quality : High
Add ID3 tag : No
Command line compressor : C:\Program Files (x86)\Exact Audio Copy\Flac\flac.exe
Additional command line options : -V -8 -T “Date=%year%” -T “Genre=%genre%” %source%

TOC of the extracted CD

Track | Start | Length | Start sector | End sector
———————————————————
1 | 0:00.00 | 4:43.39 | 0 | 21263
2 | 4:43.39 | 6:52.02 | 21264 | 52165
3 | 11:35.41 | 3:52.50 | 52166 | 69615
4 | 15:28.16 | 4:46.36 | 69616 | 91101
5 | 20:14.52 | 4:02.44 | 91102 | 109295
6 | 24:17.21 | 5:00.02 | 109296 | 131797
7 | 29:17.23 | 5:31.43 | 131798 | 156665
8 | 34:48.66 | 4:03.37 | 156666 | 174927
9 | 38:52.28 | 5:04.17 | 174928 | 197744
10 | 43:56.45 | 5:23.69 | 197745 | 222038
11 | 49:20.39 | 6:11.13 | 222039 | 249876
12 | 55:31.52 | 3:54.53 | 249877 | 267479

Range status and errors

Selected range

Filename D:\Rainbow Discography\Studio\1979. Rainbow – Down To Earth\1979. Rainbow – Down To Earth Deluxe Edition (Polydor, UMC, 5331367, Germany)\disc2\Rainbow – Down To Earth [2011 Deluxe CD2 – A Work In Progress].wav

Peak level 96.6 %
Extraction speed 15.3 X
Range quality 100.0 %
Test CRC F8020054
Copy CRC F8020054
Copy OK

No errors occurred

AccurateRip summary

Track 1 accurately ripped (confidence 21) [B770BCEA] (AR v2)
Track 2 accurately ripped (confidence 21) [9AB7AA47] (AR v2)
Track 3 accurately ripped (confidence 21) [6559449A] (AR v2)
Track 4 accurately ripped (confidence 21) [A79C2769] (AR v2)
Track 5 accurately ripped (confidence 21) [71CE79FB] (AR v2)
Track 6 accurately ripped (confidence 21) [C1B0E5A5] (AR v2)
Track 7 accurately ripped (confidence 21) [13B7C59A] (AR v2)
Track 8 accurately ripped (confidence 21) [B31CB634] (AR v2)
Track 9 accurately ripped (confidence 21) [FA654509] (AR v2)
Track 10 accurately ripped (confidence 21) [AFC9B023] (AR v2)
Track 11 accurately ripped (confidence 20) [C9EA19F0] (AR v2)
Track 12 accurately ripped (confidence 21) [70046C35] (AR v2)

All tracks accurately ripped

End of status report

—- CUETools DB Plugin V2.1.3

[CTDB TOCID: aYkhJ64cuaaAgAeRQzA6GaYXfc0-] found, Submit result: aYkhJ64cuaaAgAeRQzA6GaYXfc0- has been confirmed
[f9f378f0] (18/18) Accurately ripped

==== Log checksum E1F690241A4A25ED964DDC52655BBC6A8D05E00DAA4A81EC02DFD20FF911FBC0 ====

REM GENRE Rock
REM DATE 1979
REM DISCID 750AFD0A
REM COMMENT “ExactAudioCopy v1.0b3”
PERFORMER “Rainbow”
TITLE “Down To Earth Deluxe Edition cd1”
FILE “Rainbow – Down To Earth Deluxe Edition cd1.flac” WAVE
TRACK 01 AUDIO
TITLE “All Night Long”
PERFORMER “Rainbow”
INDEX 01 00:00:00
TRACK 02 AUDIO
TITLE “Eyes Of The World”
PERFORMER “Rainbow”
INDEX 00 03:52:03
INDEX 01 03:55:07
TRACK 03 AUDIO
TITLE “No Time To Lose”
PERFORMER “Rainbow”
INDEX 00 10:34:37
INDEX 01 10:38:24
TRACK 04 AUDIO
TITLE “Makin’ Love”
PERFORMER “Rainbow”
INDEX 00 14:20:27
INDEX 01 14:24:04
TRACK 05 AUDIO
TITLE “Since You Been Gone”
PERFORMER “Rainbow”
INDEX 00 19:00:70
INDEX 01 19:03:53
TRACK 06 AUDIO
TITLE “Love’s No Friend”
PERFORMER “Rainbow”
INDEX 00 22:21:43
INDEX 01 22:24:69
TRACK 07 AUDIO
TITLE “Danger Zone”
PERFORMER “Rainbow”
INDEX 00 27:17:44
INDEX 01 27:20:48
TRACK 08 AUDIO
TITLE “Lost In Hollywood”
PERFORMER “Rainbow”
INDEX 00 31:49:30
INDEX 01 31:52:74
TRACK 09 AUDIO
TITLE “Bad Girl”
PERFORMER “Rainbow”
INDEX 00 36:44:19
INDEX 01 36:47:39
TRACK 10 AUDIO
TITLE “Weiss Heim”
PERFORMER “Rainbow”
INDEX 00 41:38:33
INDEX 01 41:38:50

REM GENRE Rock
REM DATE 1979
REM DISCID AF0DEE0C
REM COMMENT “ExactAudioCopy v1.0b3”
PERFORMER “Rainbow”
TITLE “Down To Earth [2011 Deluxe CD2 – A Work In Progress]”
FILE “Rainbow – Down To Earth [2011 Deluxe CD2 – A Work In Progress].flac” WAVE
TRACK 01 AUDIO
TITLE “All Night Long (Instrumental Outtake)”
PERFORMER “Rainbow”
INDEX 01 00:00:00
TRACK 02 AUDIO
TITLE “Eyes Of The World (Instrumental Outtake)”
PERFORMER “Rainbow”
INDEX 00 04:41:56
INDEX 01 04:43:39
TRACK 03 AUDIO
TITLE “Spark Don’t Mean A Fire”
PERFORMER “Rainbow”
INDEX 00 11:33:58
INDEX 01 11:35:41
TRACK 04 AUDIO
TITLE “Makin’ Love (Instrumental Outtake)”
PERFORMER “Rainbow”
INDEX 00 15:26:33
INDEX 01 15:28:16
TRACK 05 AUDIO
TITLE “Since You Been Gone (Instrumental Outtake)”
PERFORMER “Rainbow”
INDEX 00 20:12:69
INDEX 01 20:14:52
TRACK 06 AUDIO
TITLE “Ain’t A Lot Of Love In THe Heart Of ME”
PERFORMER “Rainbow”
INDEX 00 24:15:38
INDEX 01 24:17:21
TRACK 07 AUDIO
TITLE “Danger Zone (Instrumental Outtake)”
PERFORMER “Rainbow”
INDEX 00 29:15:40
INDEX 01 29:17:23
TRACK 08 AUDIO
TITLE “Lost In Hollywood (Instrumental Outtake)”
PERFORMER “Rainbow”
INDEX 00 34:47:08
INDEX 01 34:48:66
TRACK 09 AUDIO
TITLE “Bad Girls (Instrumental Outtake)”
PERFORMER “Rainbow”
INDEX 00 38:50:45
INDEX 01 38:52:28
TRACK 10 AUDIO
TITLE “Ain’t A Lot Of Love In The Heart Of Me (Alternative Outtake)”
PERFORMER “Rainbow”
INDEX 00 43:54:62
INDEX 01 43:56:45
TRACK 11 AUDIO
TITLE “Eyes Of The World (Instrumental Outtake)”
PERFORMER “Rainbow”
INDEX 00 49:18:57
INDEX 01 49:20:39
TRACK 12 AUDIO
TITLE “All Night Long (Cozy Powell Mix)”
PERFORMER “Rainbow”
INDEX 00 55:29:69
INDEX 01 55:31:52

Leave a Reply

Your email address will not be published. Required fields are marked *

This site uses Akismet to reduce spam. Learn how your comment data is processed.