Radiohead – The Bends (Japanese Edition)




No Cover available

Artist: Radiohead
Year: 1995
Genre: Alternative
Notes: Discogs
Add. Notes: Japanese Edition
Watch Songs on: YouTube
Cover incl.: Yes
Encoder: FLAC
Bitrate: ~1000 kBit/s (44.1 kHz/16 Bit/s)
Log & Cue incl.: Yes
Size: 866,6 MB
Password: “slam” (without ” “)


All Downloads/Hosters are compatible

Download 1
KatFile.com
Turbobit.net
FileFactory.com
Rapidgator.net
Download 2
KatFile.com
Turbobit.net
FileFactory.com
Rapidgator.net

Tracklist:

1 - Planet Telex - 4:18
2 - The Bends - 4:06
3 - High And Dry - 4:17
4 - Fake Plastic Trees - 4:50
5 - Bones - 3:08
6 - (Nice Dream) - 3:53
7 - Just - 3:54
8 - My Iron Lung - 4:36
9 - Bullet Proof..I Wish I Was - 3:28
10 - Black Star - 4:07
11 - Sulk - 3:42
12 - Street Spirit (Fade Out) - 4:12
Bonus Track
13 - How Can You Be Sure - 4:21
14 - Killer Cars - 3:03

EAC-Log, CUE-Sheed & NFO:

Click to open spoiler
Exact Audio Copy V1.0 beta 3 from 29. August 2011

EAC extraction logfile from 9. January 2015, 20:37

Radiohead / The Bends

Used drive : ASUS DRW-24F1ST a Adapter: 4 ID: 0

Read mode : Secure
Utilize accurate stream : Yes
Defeat audio cache : Yes
Make use of C2 pointers : No

Read offset correction : 6
Overread into Lead-In and Lead-Out : No
Fill up missing offset samples with silence : Yes
Delete leading and trailing silent blocks : No
Null samples used in CRC calculations : Yes
Used interface : Native Win32 interface for Win NT & 2000

Used output format : User Defined Encoder
Selected bitrate : 896 kBit/s
Quality : High
Add ID3 tag : Yes
Command line compressor : C:\Program Files (x86)\FLAC Frontend\tools\flac.exe
Additional command line options : -V -8 -T “Date=%year%” -T “Genre=%genre%” %source%

TOC of the extracted CD

Track | Start | Length | Start sector | End sector
———————————————————
1 | 0:00.32 | 4:19.15 | 32 | 19471
2 | 4:19.47 | 4:06.15 | 19472 | 37936
3 | 8:25.62 | 4:17.40 | 37937 | 57251
4 | 12:43.27 | 4:50.53 | 57252 | 79054
5 | 17:34.05 | 3:09.00 | 79055 | 93229
6 | 20:43.05 | 3:53.17 | 93230 | 110721
7 | 24:36.22 | 3:54.08 | 110722 | 128279
8 | 28:30.30 | 4:36.32 | 128280 | 149011
9 | 33:06.62 | 3:28.55 | 149012 | 164666
10 | 36:35.42 | 4:07.03 | 164667 | 183194
11 | 40:42.45 | 3:42.72 | 183195 | 199916
12 | 44:25.42 | 4:13.30 | 199917 | 218921
13 | 48:38.72 | 4:22.20 | 218922 | 238591
14 | 53:01.17 | 3:03.55 | 238592 | 252371

Range status and errors

Selected range

Filename G:\EAC – Hellixxx rip\Radiohead – 1995 – The Bends (TOCP-8489).wav

Peak level 100.0 %
Extraction speed 2.4 X
Range quality 100.0 %
Test CRC 1BF6AEE4
Copy CRC 1BF6AEE4
Copy OK

No errors occurred

AccurateRip summary

Track 1 accurately ripped (confidence 13) [422A0A4B] (AR v2)
Track 2 accurately ripped (confidence 13) [4050420A] (AR v2)
Track 3 accurately ripped (confidence 13) [A973F4A3] (AR v2)
Track 4 accurately ripped (confidence 13) [A4A9C302] (AR v2)
Track 5 accurately ripped (confidence 13) [95F1E230] (AR v2)
Track 6 accurately ripped (confidence 13) [3A9CF779] (AR v2)
Track 7 accurately ripped (confidence 13) [23D5B4DE] (AR v2)
Track 8 accurately ripped (confidence 13) [0930E50E] (AR v2)
Track 9 accurately ripped (confidence 13) [B78381D3] (AR v2)
Track 10 accurately ripped (confidence 14) [9034148D] (AR v2)
Track 11 accurately ripped (confidence 13) [7DEBFA0D] (AR v2)
Track 12 accurately ripped (confidence 13) [144B219E] (AR v2)
Track 13 accurately ripped (confidence 13) [F3DA7302] (AR v2)
Track 14 accurately ripped (confidence 13) [BB2AE203] (AR v2)

All tracks accurately ripped

End of status report

==== Log checksum 2BF30413679E0181CB19A5874CDB79739233BCE51B3AF17D9C144C190C9CD5D4 ====

REM GENRE Alternative
REM DATE 1995
REM DISCID CC0D240E
REM COMMENT “ExactAudioCopy v1.0b3”
PERFORMER “Radiohead”
TITLE “The Bends”
FILE “Radiohead – 1995 – The Bends (TOCP-8489).flac” WAVE
TRACK 01 AUDIO
TITLE “Planet Telex”
PERFORMER “Radiohead”
INDEX 00 00:00:00
INDEX 01 00:00:32
TRACK 02 AUDIO
TITLE “The Bends”
PERFORMER “Radiohead”
INDEX 00 04:19:45
INDEX 01 04:19:47
TRACK 03 AUDIO
TITLE “High and Dry”
PERFORMER “Radiohead”
INDEX 00 08:23:35
INDEX 01 08:25:62
TRACK 04 AUDIO
TITLE “Fake Plastic Trees”
PERFORMER “Radiohead”
INDEX 00 12:43:25
INDEX 01 12:43:27
TRACK 05 AUDIO
TITLE “Bones”
PERFORMER “Radiohead”
INDEX 00 17:34:02
INDEX 01 17:34:05
TRACK 06 AUDIO
TITLE “Nice Dream”
PERFORMER “Radiohead”
INDEX 00 20:41:70
INDEX 01 20:43:05
TRACK 07 AUDIO
TITLE “Just”
PERFORMER “Radiohead”
INDEX 00 24:35:37
INDEX 01 24:36:22
TRACK 08 AUDIO
TITLE “My Iron Lung”
PERFORMER “Radiohead”
INDEX 00 28:29:09
INDEX 01 28:30:30
TRACK 09 AUDIO
TITLE “Bullet Proof…I Wish I Was”
PERFORMER “Radiohead”
INDEX 00 33:06:27
INDEX 01 33:06:62
TRACK 10 AUDIO
TITLE “Black Star”
PERFORMER “Radiohead”
INDEX 00 36:35:30
INDEX 01 36:35:42
TRACK 11 AUDIO
TITLE “Sulk”
PERFORMER “Radiohead”
INDEX 00 40:42:12
INDEX 01 40:42:45
TRACK 12 AUDIO
TITLE “Street Spirit (Fade Out)”
PERFORMER “Radiohead”
INDEX 00 44:25:35
INDEX 01 44:25:42
TRACK 13 AUDIO
TITLE “How Can You Be Sure”
PERFORMER “Radiohead”
INDEX 00 48:37:72
INDEX 01 48:38:72
TRACK 14 AUDIO
TITLE “Killer Cars”
PERFORMER “Radiohead”
INDEX 00 53:00:00
INDEX 01 53:01:17


Leave a Reply

Your email address will not be published. Required fields are marked *

Enter the text from the image below
 

This site uses Akismet to reduce spam. Learn how your comment data is processed.