Radiohead – A Moon Shaped Pool




Artist: Radiohead
Year: 2016
Genre: Rock
Notes: Discogs
Add. Notes:
Cover incl.: Yes
Encoder: FLAC
Bitrate: ~800 kBit/s (44.1 kHz/16 Bit/s)
Log & Cue incl.: Yes
Size: 344,62 MB
Password: “slam” (without ” “)


All Downloads/Hosters are compatible

Download 1
Turbobit.net
Rapidgator.net
KatFile.com
UsersDrive.com
CloudShare.to
Download 2
Turbobit.net
Rapidgator.net
KatFile.com
UsersDrive.com
CloudShare.to
Download 3
Turbobit.net
Rapidgator.net
KatFile.com
UsersDrive.com
CloudShare.to

Tracklist:

1 - Burn The Witch - 3:40
2 - Daydreaming - 6:24
3 - Decks Dark - 4:41
4 - Desert Island Disk - 3:44
5 - Ful Stop - 6:07
6 - Glass Eyes - 2:52
7 - Identikit - 4:26
8 - The Numbers - 5:45
9 - Present Tense - 5:06
10 - Tinker Tailor Soldier Sailor Rich Man Poor Man Beggar 
Man Thief - 5:03
11 - True Love Waits - 4:43

EAC-Log, CUE-Sheed & NFO:

Click to open spoiler
X Lossless Decoder version 20141129a (148.2)

XLD extraction logfile from 2016-09-30 17:18:25 -0400

Radiohead / A Moon Shaped Pool

Used drive : HL-DT-ST DVD+-RW GSA-H73N (revision B103)
Media type : Pressed CD

Ripper mode : XLD Secure Ripper
Disable audio cache : OK for the drive with a cache less than 1375KiB
Make use of C2 pointers : NO
Read offset correction : 102
Max retry count : 100
Gap status : Analyzed, Appended (except HTOA)

TOC of the extracted CD
Track | Start | Length | Start sector | End sector
———————————————————
1 | 00:00:00 | 03:41:34 | 0 | 16608
2 | 03:41:34 | 06:24:41 | 16609 | 45449
3 | 10:06:00 | 04:41:00 | 45450 | 66524
4 | 14:47:00 | 03:44:44 | 66525 | 83368
5 | 18:31:44 | 06:07:26 | 83369 | 110919
6 | 24:38:70 | 02:52:72 | 110920 | 123891
7 | 27:31:67 | 04:26:48 | 123892 | 143889
8 | 31:58:40 | 05:45:67 | 143890 | 169831
9 | 37:44:32 | 05:06:42 | 169832 | 192823
10 | 42:50:74 | 05:03:61 | 192824 | 215609
11 | 47:54:60 | 04:45:38 | 215610 | 237022

List of alternate offset correction values
# | Absolute | Relative | Confidence
——————————————
1 | 114 | 12 | 84
2 | 108 | 6 | 28

AccurateRip Summary (DiscID: 001573f8-00ba4bd8-950c580b)
Track 01 : OK (v2, confidence 6/118)
Track 02 : OK (v2, confidence 7/119)
Track 03 : OK (v2, confidence 7/119)
Track 04 : OK (v2, confidence 7/119)
Track 05 : OK (v2, confidence 7/119)
Track 06 : OK (v2, confidence 7/119)
Track 07 : OK (v2, confidence 7/116)
Track 08 : OK (v2, confidence 7/116)
Track 09 : OK (v2, confidence 7/116)
Track 10 : OK (v2, confidence 7/119)
Track 11 : OK (v2, confidence 7/119)
->All tracks accurately ripped.

All Tracks
Album gain : -9.05 dB
Peak : 1.000000
Statistics
Read error : 0
Jitter error (maybe fixed) : 0
Retry sector count : 0
Damaged sector count : 0

Track 01
Filename : /Users/WildChoir/Desktop/Radiohead/Radiohead – A Moon Shaped Pool (2016) [FLAC (level 8)]/01 Burn The Witch.flac
Pre-gap length : 00:02:00

Track gain : -10.31 dB
Peak : 1.000000
CRC32 hash (test run) : 5BFF007B
CRC32 hash : 5BFF007B
CRC32 hash (skip zero) : A054F63B
AccurateRip v1 signature : 7FD79A9E
AccurateRip v2 signature : C16F8DBA
->Accurately ripped (v2, confidence 6/118)
Statistics
Read error : 0
Jitter error (maybe fixed) : 0
Retry sector count : 0
Damaged sector count : 0

Track 02
Filename : /Users/WildChoir/Desktop/Radiohead/Radiohead – A Moon Shaped Pool (2016) [FLAC (level 8)]/02 Daydreaming.flac

Track gain : -9.05 dB
Peak : 1.000000
CRC32 hash (test run) : 40A9DF56
CRC32 hash : 40A9DF56
CRC32 hash (skip zero) : 3D3778F6
AccurateRip v1 signature : 231C620A
AccurateRip v2 signature : 8C7EBE68
->Accurately ripped (v2, confidence 7/119)
Statistics
Read error : 0
Jitter error (maybe fixed) : 0
Retry sector count : 0
Damaged sector count : 0

Track 03
Filename : /Users/WildChoir/Desktop/Radiohead/Radiohead – A Moon Shaped Pool (2016) [FLAC (level 8)]/03 Decks Dark.flac

Track gain : -9.18 dB
Peak : 1.000000
CRC32 hash (test run) : 78EFE9A7
CRC32 hash : 78EFE9A7
CRC32 hash (skip zero) : 12DEB0CC
AccurateRip v1 signature : 2194603D
AccurateRip v2 signature : A040ACCF
->Accurately ripped (v2, confidence 7/119)
Statistics
Read error : 0
Jitter error (maybe fixed) : 0
Retry sector count : 0
Damaged sector count : 0

Track 04
Filename : /Users/WildChoir/Desktop/Radiohead/Radiohead – A Moon Shaped Pool (2016) [FLAC (level 8)]/04 Desert Island Disk.flac

Track gain : -8.17 dB
Peak : 1.000000
CRC32 hash (test run) : 2AD7461C
CRC32 hash : 2AD7461C
CRC32 hash (skip zero) : 2F32B34F
AccurateRip v1 signature : 494F9622
AccurateRip v2 signature : 588FF3D2
->Accurately ripped (v2, confidence 7/119)
Statistics
Read error : 0
Jitter error (maybe fixed) : 0
Retry sector count : 0
Damaged sector count : 0

Track 05
Filename : /Users/WildChoir/Desktop/Radiohead/Radiohead – A Moon Shaped Pool (2016) [FLAC (level 8)]/05 Ful Stop.flac

Track gain : -9.05 dB
Peak : 1.000000
CRC32 hash (test run) : 41E1E9CF
CRC32 hash : 41E1E9CF
CRC32 hash (skip zero) : EC3E27F8
AccurateRip v1 signature : C5B3ACCA
AccurateRip v2 signature : 5F09D30F
->Accurately ripped (v2, confidence 7/119)
Statistics
Read error : 0
Jitter error (maybe fixed) : 0
Retry sector count : 0
Damaged sector count : 0

Track 06
Filename : /Users/WildChoir/Desktop/Radiohead/Radiohead – A Moon Shaped Pool (2016) [FLAC (level 8)]/06 Glass Eyes.flac

Track gain : -8.03 dB
Peak : 0.996277
CRC32 hash (test run) : 3D9F5C11
CRC32 hash : 3D9F5C11
CRC32 hash (skip zero) : 17743D3B
AccurateRip v1 signature : EAAF2BED
AccurateRip v2 signature : 7E85C54E
->Accurately ripped (v2, confidence 7/119)
Statistics
Read error : 0
Jitter error (maybe fixed) : 0
Retry sector count : 0
Damaged sector count : 0

Track 07
Filename : /Users/WildChoir/Desktop/Radiohead/Radiohead – A Moon Shaped Pool (2016) [FLAC (level 8)]/07 Identikit.flac

Track gain : -7.58 dB
Peak : 1.000000
CRC32 hash (test run) : 5FE4AD2D
CRC32 hash : 5FE4AD2D
CRC32 hash (skip zero) : 13DAE6B0
AccurateRip v1 signature : 1B61DD34
AccurateRip v2 signature : 9E01B938
->Accurately ripped (v2, confidence 7/116)
Statistics
Read error : 0
Jitter error (maybe fixed) : 0
Retry sector count : 0
Damaged sector count : 0

Track 08
Filename : /Users/WildChoir/Desktop/Radiohead/Radiohead – A Moon Shaped Pool (2016) [FLAC (level 8)]/08 The Numbers.flac
Pre-gap length : 00:01:67

Track gain : -9.34 dB
Peak : 1.000000
CRC32 hash (test run) : 8797F06C
CRC32 hash : 8797F06C
CRC32 hash (skip zero) : 1F9EDA69
AccurateRip v1 signature : 5C5A0C91
AccurateRip v2 signature : 6E785125
->Accurately ripped (v2, confidence 7/116)
Statistics
Read error : 0
Jitter error (maybe fixed) : 0
Retry sector count : 0
Damaged sector count : 0

Track 09
Filename : /Users/WildChoir/Desktop/Radiohead/Radiohead – A Moon Shaped Pool (2016) [FLAC (level 8)]/09 Present Tense.flac
Pre-gap length : 00:01:65

Track gain : -8.67 dB
Peak : 1.000000
CRC32 hash (test run) : DF0CEE6C
CRC32 hash : DF0CEE6C
CRC32 hash (skip zero) : 7D14284F
AccurateRip v1 signature : 6FAF69A1
AccurateRip v2 signature : A68B50B5
->Accurately ripped (v2, confidence 7/116)
Statistics
Read error : 0
Jitter error (maybe fixed) : 0
Retry sector count : 0
Damaged sector count : 0

Track 10
Filename : /Users/WildChoir/Desktop/Radiohead/Radiohead – A Moon Shaped Pool (2016) [FLAC (level 8)]/10 Tinker Tailor Soldier Sailor Rich Man Poor Man Beggar Man Thief.flac
Pre-gap length : 00:01:62

Track gain : -9.11 dB
Peak : 1.000000
CRC32 hash (test run) : 61A6E458
CRC32 hash : 61A6E458
CRC32 hash (skip zero) : FC5D47DC
AccurateRip v1 signature : 5D725D0B
AccurateRip v2 signature : A4031418
->Accurately ripped (v2, confidence 7/119)
Statistics
Read error : 0
Jitter error (maybe fixed) : 0
Retry sector count : 0
Damaged sector count : 0

Track 11
Filename : /Users/WildChoir/Desktop/Radiohead/Radiohead – A Moon Shaped Pool (2016) [FLAC (level 8)]/11 True Love Waits.flac

Track gain : -6.66 dB
Peak : 0.997498
CRC32 hash (test run) : 045975C4
CRC32 hash : 045975C4
CRC32 hash (skip zero) : A4DB4F8C
AccurateRip v1 signature : 631CCE34
AccurateRip v2 signature : 6FA632D1
->Accurately ripped (v2, confidence 7/119)
Statistics
Read error : 0
Jitter error (maybe fixed) : 0
Retry sector count : 0
Damaged sector count : 0

No errors occurred

End of status report

—–BEGIN XLD SIGNATURE—–
p0kPyIhVIK7yb4kBHG6mgU2UovypboiUzDD_PnS4..Mg893_h1qsVb1P3FJOZpNvn5GRgzIScQYWOJ3VxyIoNbrxrfCc10150fXoekW
—–END XLD SIGNATURE—–

X Lossless Decoder version 20141129a (148.2)

XLD extraction logfile from 2016-09-30 17:55:49 -0400

Radiohead / A Moon Shaped Pool

Used drive : HL-DT-ST DVD+-RW GSA-H73N (revision B103)
Media type : Pressed CD

Ripper mode : XLD Secure Ripper
Disable audio cache : OK for the drive with a cache less than 1375KiB
Make use of C2 pointers : NO
Read offset correction : 102
Max retry count : 100
Gap status : Analyzed, Appended (except HTOA)

TOC of the extracted CD
Track | Start | Length | Start sector | End sector
———————————————————
1 | 00:00:00 | 04:16:34 | 0 | 19233
2 | 04:16:34 | 03:21:39 | 19234 | 34347

AccurateRip Summary
Disc not found in AccurateRip DB.

All Tracks
Album gain : -9.27 dB
Peak : 1.000000
Statistics
Read error : 0
Jitter error (maybe fixed) : 0
Retry sector count : 0
Damaged sector count : 0

Track 01
Filename : /Users/WildChoir/Desktop/Radiohead/Radiohead – A Moon Shaped Pool (2016) [FLAC]/01 Ill Wind.flac
Pre-gap length : 00:02:00

Track gain : -8.32 dB
Peak : 1.000000
CRC32 hash (test run) : 91F0263D
CRC32 hash : 91F0263D
CRC32 hash (skip zero) : 5A83DC40
AccurateRip v1 signature : 1952648E
AccurateRip v2 signature : 370BC977
->Track not present in AccurateRip database.
Statistics
Read error : 0
Jitter error (maybe fixed) : 0
Retry sector count : 0
Damaged sector count : 0

Track 02
Filename : /Users/WildChoir/Desktop/Radiohead/Radiohead – A Moon Shaped Pool (2016) [FLAC]/02 Spectre.flac
Pre-gap length : 00:01:19

Track gain : -9.73 dB
Peak : 1.000000
CRC32 hash (test run) : F0C7203A
CRC32 hash : F0C7203A
CRC32 hash (skip zero) : 108C8C67
AccurateRip v1 signature : 6F6A9996
AccurateRip v2 signature : A7EB5A14
->Track not present in AccurateRip database.
Statistics
Read error : 0
Jitter error (maybe fixed) : 0
Retry sector count : 0
Damaged sector count : 0

No errors occurred

End of status report

—–BEGIN XLD SIGNATURE—–
okg5qtt7J.HoJP4XO1GseldhjGJkk.6nrNCujr5_Vhiqo7vIH6jaDhY19rRZKCq_lsIZt_NNIjQrSBGMktNuGPWSvaHH0jmuxS3qNNW
—–END XLD SIGNATURE—–

TITLE “A Moon Shaped Pool”
PERFORMER “Radiohead”
REM GENRE “Indie Rock”
REM DATE “2016”
REM DISCNUMBER 2
REM TOTALDISCS 2
REM DISCID 1101C902
REM REPLAYGAIN_ALBUM_GAIN -9.27 dB
REM REPLAYGAIN_ALBUM_PEAK 1.000000
FILE “01 Ill Wind.flac” WAVE
TRACK 01 AUDIO
TITLE “Ill Wind”
PERFORMER “Radiohead”
ISRC GBBKS1600107
REM REPLAYGAIN_TRACK_GAIN -8.32 dB
REM REPLAYGAIN_TRACK_PEAK 1.000000
INDEX 01 00:00:00
TRACK 02 AUDIO
TITLE “Spectre”
PERFORMER “Radiohead”
ISRC GBU4B1600050
REM REPLAYGAIN_TRACK_GAIN -9.73 dB
REM REPLAYGAIN_TRACK_PEAK 1.000000
INDEX 00 04:15:15
FILE “02 Spectre.flac” WAVE
INDEX 01 00:00:00

TITLE “A Moon Shaped Pool”
PERFORMER “Radiohead”
REM GENRE “Indie Rock”
REM DATE “2016”
REM DISCNUMBER 1
REM TOTALDISCS 1
REM DISCID 950C580B
REM REPLAYGAIN_ALBUM_GAIN -9.05 dB
REM REPLAYGAIN_ALBUM_PEAK 1.000000
FILE “01 Burn The Witch.flac” WAVE
TRACK 01 AUDIO
TITLE “Burn The Witch”
PERFORMER “Radiohead”
SONGWRITER “Colin Greenwood/Ed O’Brien/Jonny Greenwood/Phil Selway/Thom Yorke”
ISRC GBBKS1600071
REM REPLAYGAIN_TRACK_GAIN -10.31 dB
REM REPLAYGAIN_TRACK_PEAK 1.000000
INDEX 01 00:00:00
FILE “02 Daydreaming.flac” WAVE
TRACK 02 AUDIO
TITLE “Daydreaming”
PERFORMER “Radiohead”
SONGWRITER “Colin Greenwood/Ed O’Brien/Jonny Greenwood/Phil Selway/Thom Yorke”
ISRC GBBKS1600072
REM REPLAYGAIN_TRACK_GAIN -9.05 dB
REM REPLAYGAIN_TRACK_PEAK 1.000000
INDEX 01 00:00:00
FILE “03 Decks Dark.flac” WAVE
TRACK 03 AUDIO
TITLE “Decks Dark”
PERFORMER “Radiohead”
SONGWRITER “Colin Greenwood/Ed O’Brien/Jonny Greenwood/Phil Selway/Thom Yorke”
ISRC GBBKS1600073
REM REPLAYGAIN_TRACK_GAIN -9.18 dB
REM REPLAYGAIN_TRACK_PEAK 1.000000
INDEX 01 00:00:00
FILE “04 Desert Island Disk.flac” WAVE
TRACK 04 AUDIO
TITLE “Desert Island Disk”
PERFORMER “Radiohead”
SONGWRITER “Colin Greenwood/Ed O’Brien/Jonny Greenwood/Phil Selway/Thom Yorke”
ISRC GBBKS1600074
REM REPLAYGAIN_TRACK_GAIN -8.17 dB
REM REPLAYGAIN_TRACK_PEAK 1.000000
INDEX 01 00:00:00
FILE “05 Ful Stop.flac” WAVE
TRACK 05 AUDIO
TITLE “Ful Stop”
PERFORMER “Radiohead”
SONGWRITER “Colin Greenwood/Ed O’Brien/Jonny Greenwood/Phil Selway/Thom Yorke”
ISRC GBBKS1600075
REM REPLAYGAIN_TRACK_GAIN -9.05 dB
REM REPLAYGAIN_TRACK_PEAK 1.000000
INDEX 01 00:00:00
FILE “06 Glass Eyes.flac” WAVE
TRACK 06 AUDIO
TITLE “Glass Eyes”
PERFORMER “Radiohead”
SONGWRITER “Colin Greenwood/Ed O’Brien/Jonny Greenwood/Phil Selway/Thom Yorke”
ISRC GBBKS1600076
REM REPLAYGAIN_TRACK_GAIN -8.03 dB
REM REPLAYGAIN_TRACK_PEAK 0.996277
INDEX 01 00:00:00
FILE “07 Identikit.flac” WAVE
TRACK 07 AUDIO
TITLE “Identikit”
PERFORMER “Radiohead”
SONGWRITER “Colin Greenwood/Ed O’Brien/Jonny Greenwood/Phil Selway/Thom Yorke”
ISRC GBBKS1600077
REM REPLAYGAIN_TRACK_GAIN -7.58 dB
REM REPLAYGAIN_TRACK_PEAK 1.000000
INDEX 01 00:00:00
TRACK 08 AUDIO
TITLE “The Numbers”
PERFORMER “Radiohead”
SONGWRITER “Colin Greenwood/Ed O’Brien/Jonny Greenwood/Phil Selway/Thom Yorke”
ISRC GBBKS1600078
REM REPLAYGAIN_TRACK_GAIN -9.34 dB
REM REPLAYGAIN_TRACK_PEAK 1.000000
INDEX 00 04:24:56
FILE “08 The Numbers.flac” WAVE
INDEX 01 00:00:00
TRACK 09 AUDIO
TITLE “Present Tense”
PERFORMER “Radiohead”
SONGWRITER “Colin Greenwood/Ed O’Brien/Jonny Greenwood/Phil Selway/Thom Yorke”
ISRC GBBKS1600079
REM REPLAYGAIN_TRACK_GAIN -8.67 dB
REM REPLAYGAIN_TRACK_PEAK 1.000000
INDEX 00 05:44:02
FILE “09 Present Tense.flac” WAVE
INDEX 01 00:00:00
TRACK 10 AUDIO
TITLE “Tinker Tailor Soldier Sailor Rich Man Poor Man Beggar Man Thief”
PERFORMER “Radiohead”
SONGWRITER “Colin Greenwood/Ed O’Brien/Jonny Greenwood/Phil Selway/Thom Yorke”
ISRC GBBKS1600080
REM REPLAYGAIN_TRACK_GAIN -9.11 dB
REM REPLAYGAIN_TRACK_PEAK 1.000000
INDEX 00 05:04:55
FILE “10 Tinker Tailor Soldier Sailor Rich Man Poor Man Beggar Man Thief.flac” WAVE
INDEX 01 00:00:00
FILE “11 True Love Waits.flac” WAVE
TRACK 11 AUDIO
TITLE “True Love Waits”
PERFORMER “Radiohead”
SONGWRITER “Colin Greenwood/Ed O’Brien/Jonny Greenwood/Phil Selway/Thom Yorke”
ISRC GBBKS1600081
REM REPLAYGAIN_TRACK_GAIN -6.66 dB
REM REPLAYGAIN_TRACK_PEAK 0.997498
INDEX 01 00:00:00

Leave a Reply

Your email address will not be published. Required fields are marked *

This site uses Akismet to reduce spam. Learn how your comment data is processed.