R.E.M. – Reckoning




Artist: R.E.M.
Year: 1984
Genre: Rock
Notes: Discogs
Add. Notes:
Encoder: FLAC
Bitrate: ~800 kBit/s (44.1 kHz/16 Bit/s)
Bin/Cue incl.: Yes
Size: 220,22 MB
Password: “slam” (without ” “)


http://www.share-online.biz/dl/SG4KLTRPKT

https://rapidgator.net/file/f8fc8a5a9e6d4332814e6ca681fa7f72

https://uploadbyte.com/he2f7dfcg53s

https://justupload.io/m5zs7i24dmpu

https://uploadever.com/cil2tz1su8ld

Tracklist:

1 - Harborcoat - 3:51
2 - 7 Chinese Bros. - 4:15
3 - So. Central Rain - 3:11
4 - Pretty Persuasion - 3:53
5 - Time After Time (Annelise) - 3:39
6 - Second Guessing - 2:50
7 - Letter Never Sent - 2:57
8 - Camera - 5:21
9 - (Don't Go Back To) Rockville - 4:34
10 - Little America - 2:56

EAC-Log, CUE-Sheed & NFO:

Click to open spoiler
Exact Audio Copy V1.0 beta 3 from 29. August 2011

EAC extraction logfile from 3. March 2013, 16:09

R.E.M. / Reckoning

Used drive : OPTIARC DVD-ROM DDU1681S Adapter: 6 ID: 0

Read mode : Secure
Utilize accurate stream : Yes
Defeat audio cache : Yes
Make use of C2 pointers : No

Read offset correction : 6
Overread into Lead-In and Lead-Out : No
Fill up missing offset samples with silence : Yes
Delete leading and trailing silent blocks : No
Null samples used in CRC calculations : Yes
Used interface : Native Win32 interface for Win NT & 2000

Used output format : Internal WAV Routines
Sample format : 44.100 Hz; 16 Bit; Stereo

TOC of the extracted CD

Track | Start | Length | Start sector | End sector
———————————————————
1 | 0:00.32 | 3:53.55 | 32 | 17561
2 | 3:54.12 | 4:18.40 | 17562 | 36951
3 | 8:12.52 | 3:16.03 | 36952 | 51654
4 | 11:28.55 | 3:53.15 | 51655 | 69144
5 | 15:21.70 | 3:32.12 | 69145 | 85056
6 | 18:54.07 | 2:51.50 | 85057 | 97931
7 | 21:45.57 | 3:02.53 | 97932 | 111634
8 | 24:48.35 | 5:51.25 | 111635 | 137984
9 | 30:39.60 | 4:33.05 | 137985 | 158464
10 | 35:12.65 | 2:58.32 | 158465 | 171846

Range status and errors

Selected range

Filename G:\Раздачи\R.E.M. – Reckoning.wav

Peak level 100.0 %
Extraction speed 4.4 X
Range quality 100.0 %
Copy CRC F14B1785
Copy OK

No errors occurred

AccurateRip summary

Track 1 accurately ripped (confidence 3) [FFA0E824] (AR v2)
Track 2 accurately ripped (confidence 3) [22C42174] (AR v2)
Track 3 accurately ripped (confidence 3) [613C5E79] (AR v2)
Track 4 accurately ripped (confidence 3) [50EB2072] (AR v2)
Track 5 accurately ripped (confidence 3) [ECF5D401] (AR v2)
Track 6 accurately ripped (confidence 3) [24141AAF] (AR v2)
Track 7 accurately ripped (confidence 3) [53E80CA8] (AR v2)
Track 8 accurately ripped (confidence 2) [8BAD989E] (AR v2)
Track 9 accurately ripped (confidence 3) [22831F36] (AR v2)
Track 10 accurately ripped (confidence 3) [7CF73319] (AR v2)

All tracks accurately ripped

End of status report

REM GENRE “Alternative Rock”
REM DATE 1984
REM DISCID 7508F30A
REM COMMENT “ExactAudioCopy v1.0b3”
PERFORMER “R.E.M.”
TITLE “Reckoning”
FILE “R.E.M. – Reckoning.ape” WAVE
TRACK 01 AUDIO
TITLE “Harborcoat”
PERFORMER “R.E.M.”
INDEX 00 00:00:00
INDEX 01 00:00:32
TRACK 02 AUDIO
TITLE “7 Chinese Brothers”
PERFORMER “R.E.M.”
INDEX 01 03:54:12
TRACK 03 AUDIO
TITLE “So. Central Rain (I’m Sorry)”
PERFORMER “R.E.M.”
INDEX 00 08:12:17
INDEX 01 08:12:52
TRACK 04 AUDIO
TITLE “Pretty Persuasion”
PERFORMER “R.E.M.”
INDEX 01 11:28:55
TRACK 05 AUDIO
TITLE “Time After Time (AnnElise)”
PERFORMER “R.E.M.”
INDEX 00 15:18:42
INDEX 01 15:21:70
TRACK 06 AUDIO
TITLE “Second Guessing”
PERFORMER “R.E.M.”
INDEX 01 18:54:07
TRACK 07 AUDIO
TITLE “Letter Never Sent”
PERFORMER “R.E.M.”
INDEX 00 21:44:12
INDEX 01 21:45:57
TRACK 08 AUDIO
TITLE “Camera”
PERFORMER “R.E.M.”
INDEX 00 24:46:16
INDEX 01 24:48:35
TRACK 09 AUDIO
TITLE “(Don’t Go Back To) Rockville”
PERFORMER “R.E.M.”
INDEX 00 30:21:14
INDEX 01 30:39:60
TRACK 10 AUDIO
TITLE “Little America”
PERFORMER “R.E.M.”
INDEX 00 35:12:08
INDEX 01 35:12:65

Leave a Reply

Your email address will not be published. Required fields are marked *

Enter the text from the image below
 

This site uses Akismet to reduce spam. Learn how your comment data is processed.