R.E.M. – Murmur




Artist: R.E.M.
Year: 1983/1992
Genre: Rock
Notes: Discogs
Add. Notes:
Cover incl.: Yes
Encoder: FLAC
Bitrate: ~800 kBit/s (44.1 kHz/16 Bit/s)
Log & Cue incl.: Yes
Size: 254,83 MB
Password: “slam” (without ” “)


All Downloads/Hosters are compatible

Download 1
Turbobit.net
Rapidgator.net
UploadEver.com
JustUpload.io
HexUpload.net
Download 2
Turbobit.net
Rapidgator.net
UploadEver.com
JustUpload.io
HexUpload.net
Download 3
Turbobit.net
Rapidgator.net
UploadEver.com
JustUpload.io
HexUpload.net

Tracklist:

1 - Radio Free Europe - 4:05
2 - Pilgrimage - 4:30
3 - Laughing - 3:57
4 - Talk About The Passion - 3:23
5 - Moral Kiosk - 3:31
6 - Perfect Circle - 3:30
7 - Catapult - 3:55
8 - Sitting Still - 3:15
9 - 9-9 - 3:02
10 - Shaking Through - 4:29
11 - We Walk - 3:01
12 - West Of The Fields - 3:17
13 - There She Goes Again - 2:48
14 - 9-9 (Live) - 3:04
15 - Gardening At Night (Live) - 3:47
16 - Catapult (Live) - 4:03

EAC-Log, CUE-Sheed & NFO:

Click to open spoiler
Exact Audio Copy V1.0 beta 3 from 29. August 2011

EAC extraction logfile from 3. March 2013, 15:56

R.E.M. / Murmur

Used drive : OPTIARC DVD-ROM DDU1681S Adapter: 6 ID: 0

Read mode : Secure
Utilize accurate stream : Yes
Defeat audio cache : Yes
Make use of C2 pointers : No

Read offset correction : 6
Overread into Lead-In and Lead-Out : No
Fill up missing offset samples with silence : Yes
Delete leading and trailing silent blocks : No
Null samples used in CRC calculations : Yes
Used interface : Native Win32 interface for Win NT & 2000

Used output format : Internal WAV Routines
Sample format : 44.100 Hz; 16 Bit; Stereo

TOC of the extracted CD

Track | Start | Length | Start sector | End sector
———————————————————
1 | 0:00.00 | 4:05.15 | 0 | 18389
2 | 4:05.15 | 4:30.35 | 18390 | 38674
3 | 8:35.50 | 3:58.55 | 38675 | 56579
4 | 12:34.30 | 3:24.00 | 56580 | 71879
5 | 15:58.30 | 3:32.35 | 71880 | 87814
6 | 19:30.65 | 3:30.35 | 87815 | 103599
7 | 23:01.25 | 3:55.60 | 103600 | 121284
8 | 26:57.10 | 3:18.48 | 121285 | 136182
9 | 30:15.58 | 3:05.05 | 136183 | 150062
10 | 33:20.63 | 4:30.20 | 150063 | 170332
11 | 37:51.08 | 3:01.30 | 170333 | 183937
12 | 40:52.38 | 3:19.37 | 183938 | 198899

Range status and errors

Selected range

Filename G:\Раздачи\R.E.M. – Murmur.wav

Peak level 99.6 %
Extraction speed 3.8 X
Range quality 99.9 %
Copy CRC 782FB3F7
Copy OK

No errors occurred

AccurateRip summary

Track 1 accurately ripped (confidence 2) [7D5A95CD] (AR v1)
Track 2 accurately ripped (confidence 2) [37303776] (AR v1)
Track 3 accurately ripped (confidence 2) [8B22671E] (AR v1)
Track 4 accurately ripped (confidence 2) [9DFBE73E] (AR v1)
Track 5 accurately ripped (confidence 2) [BB9659F3] (AR v1)
Track 6 accurately ripped (confidence 2) [3C8F14DD] (AR v1)
Track 7 accurately ripped (confidence 2) [82F9175B] (AR v1)
Track 8 accurately ripped (confidence 2) [36D86CB6] (AR v1)
Track 9 accurately ripped (confidence 2) [902C32CB] (AR v1)
Track 10 accurately ripped (confidence 2) [47F3A817] (AR v1)
Track 11 accurately ripped (confidence 2) [AE77E644] (AR v1)
Track 12 accurately ripped (confidence 2) [D4E627C9] (AR v1)

All tracks accurately ripped

End of status report

REM GENRE Rock
REM DATE 1983
REM DISCID 9A0A5C0C
REM COMMENT “ExactAudioCopy v1.0b3”
PERFORMER “R.E.M.”
TITLE “Murmur”
FILE “R.E.M. – Murmur.ape” WAVE
TRACK 01 AUDIO
TITLE “Radio Free Europe”
PERFORMER “R.E.M.”
INDEX 01 00:00:00
TRACK 02 AUDIO
TITLE “Pilgrimage”
PERFORMER “R.E.M.”
INDEX 01 04:05:15
TRACK 03 AUDIO
TITLE “Laughing”
PERFORMER “R.E.M.”
INDEX 01 08:35:50
TRACK 04 AUDIO
TITLE “Talk About The Passion”
PERFORMER “R.E.M.”
INDEX 00 12:34:21
INDEX 01 12:34:30
TRACK 05 AUDIO
TITLE “Moral Kiosk”
PERFORMER “R.E.M.”
INDEX 01 15:58:30
TRACK 06 AUDIO
TITLE “Perfect Circle”
PERFORMER “R.E.M.”
INDEX 01 19:30:65
TRACK 07 AUDIO
TITLE “Catapult”
PERFORMER “R.E.M.”
INDEX 01 23:01:25
TRACK 08 AUDIO
TITLE “Sitting Still”
PERFORMER “R.E.M.”
INDEX 01 26:57:10
TRACK 09 AUDIO
TITLE “9-9”
PERFORMER “R.E.M.”
INDEX 01 30:15:58
TRACK 10 AUDIO
TITLE “Shaking Through”
PERFORMER “R.E.M.”
INDEX 00 33:19:40
INDEX 01 33:20:63
TRACK 11 AUDIO
TITLE “We Walk”
PERFORMER “R.E.M.”
INDEX 00 37:50:33
INDEX 01 37:51:08
TRACK 12 AUDIO
TITLE “West Of The Fields”
PERFORMER “R.E.M.”
INDEX 01 40:52:38

Leave a Reply

Your email address will not be published. Required fields are marked *

This site uses Akismet to reduce spam. Learn how your comment data is processed.