R.E.M. – Lifes Rich Pageant




Artist: R.E.M.
Year: 1986
Genre: Rock
Notes: Discogs
Add. Notes:
Cover incl.: No
Encoder: FLAC
Bitrate: ~900 kBit/s (44.1 kHz/16 Bit/s)
Log & Cue incl.: Yes
Size: 235,4 MB
Password: “slam” (without ” “)


All Downloads/Hosters are compatible

Download 1
Turbobit.net
Rapidgator.net
UploadEver.com
JustUpload.io
UsersDrive.com
Download 2
Turbobit.net
Rapidgator.net
UploadEver.com
JustUpload.io
UsersDrive.com
Download 3
Turbobit.net
Rapidgator.net
UploadEver.com
JustUpload.io
UsersDrive.com

Tracklist:

1 - Begin The Begin - 3:24
2 - These Days - 3:21
3 - Fall On Me - 2:49
4 - Cuyahoga - 4:17
5 - Hyena - 2:48
6 - Underneath The Bunker - 1:24
7 - The Flowers Of Guatemala - 3:53
8 - I Believe - 3:32
9 - What If We Give It Away? - 3:31
10 - Just A Touch - 2:56
11 - Swan Swan H - 2:39
12 - Superman - 2:50

EAC-Log, CUE-Sheed & NFO:

Click to open spoiler
Exact Audio Copy V1.0 beta 3 from 29. August 2011

EAC extraction logfile from 3. March 2013, 14:41

R.E.M. / Life’s Rich Pageant

Used drive : OPTIARC DVD-ROM DDU1681S Adapter: 6 ID: 0

Read mode : Secure
Utilize accurate stream : Yes
Defeat audio cache : Yes
Make use of C2 pointers : No

Read offset correction : 6
Overread into Lead-In and Lead-Out : No
Fill up missing offset samples with silence : Yes
Delete leading and trailing silent blocks : No
Null samples used in CRC calculations : Yes
Used interface : Native Win32 interface for Win NT & 2000

Used output format : Internal WAV Routines
Sample format : 44.100 Hz; 16 Bit; Stereo

TOC of the extracted CD

Track | Start | Length | Start sector | End sector
———————————————————
1 | 0:00.00 | 3:28.07 | 0 | 15606
2 | 3:28.07 | 3:24.53 | 15607 | 30959
3 | 6:52.60 | 2:50.60 | 30960 | 43769
4 | 9:43.45 | 4:21.30 | 43770 | 63374
5 | 14:05.00 | 2:51.27 | 63375 | 76226
6 | 16:56.27 | 1:27.40 | 76227 | 82791
7 | 18:23.67 | 3:56.70 | 82792 | 100561
8 | 22:20.62 | 3:50.38 | 100562 | 117849
9 | 26:11.25 | 3:34.60 | 117850 | 133959
10 | 29:46.10 | 3:00.65 | 133960 | 147524
11 | 32:47.00 | 2:50.07 | 147525 | 160281
12 | 35:37.07 | 2:53.03 | 160282 | 173259

Range status and errors

Selected range

Filename G:\Раздачи\R.E.M. – Life’s Rich Pageant.wav

Peak level 100.0 %
Extraction speed 3.7 X
Range quality 100.0 %
Copy CRC 2179FFD7
Copy OK

No errors occurred

AccurateRip summary

Track 1 accurately ripped (confidence 4) [8FE30600] (AR v2)
Track 2 accurately ripped (confidence 4) [08FDA3A9] (AR v2)
Track 3 accurately ripped (confidence 4) [9592DFCC] (AR v2)
Track 4 accurately ripped (confidence 4) [D0A458F9] (AR v2)
Track 5 accurately ripped (confidence 4) [FF7915E9] (AR v2)
Track 6 accurately ripped (confidence 4) [40AE0C73] (AR v2)
Track 7 accurately ripped (confidence 4) [8A7B33E5] (AR v2)
Track 8 accurately ripped (confidence 4) [D8B9DF14] (AR v2)
Track 9 accurately ripped (confidence 4) [419A8088] (AR v2)
Track 10 accurately ripped (confidence 4) [BEBDD6A3] (AR v2)
Track 11 accurately ripped (confidence 4) [A28A0BE8] (AR v2)
Track 12 accurately ripped (confidence 4) [5F4110DE] (AR v2)

All tracks accurately ripped

End of status report

REM GENRE Rock
REM DATE 1986
REM DISCID 9E09060C
REM COMMENT “ExactAudioCopy v1.0b3”
PERFORMER “R.E.M.”
TITLE “Life’s Rich Pageant”
FILE “R.E.M. – Life’s Rich Pageant.ape” WAVE
TRACK 01 AUDIO
TITLE “Begin The Begin”
PERFORMER “R.E.M.”
INDEX 01 00:00:00
TRACK 02 AUDIO
TITLE “These Days”
PERFORMER “R.E.M.”
INDEX 01 03:28:07
TRACK 03 AUDIO
TITLE “Fall On Me”
PERFORMER “R.E.M.”
INDEX 01 06:52:60
TRACK 04 AUDIO
TITLE “Cuyahoga”
PERFORMER “R.E.M.”
INDEX 01 09:43:45
TRACK 05 AUDIO
TITLE “Hyena”
PERFORMER “R.E.M.”
INDEX 00 14:04:32
INDEX 01 14:05:00
TRACK 06 AUDIO
TITLE “Underneath The Bunker”
PERFORMER “R.E.M.”
INDEX 00 16:54:52
INDEX 01 16:56:27
TRACK 07 AUDIO
TITLE “The Flowers Of Guatemala”
PERFORMER “R.E.M.”
INDEX 00 18:21:60
INDEX 01 18:23:67
TRACK 08 AUDIO
TITLE “I Believe”
PERFORMER “R.E.M.”
INDEX 00 22:20:58
INDEX 01 22:20:62
TRACK 09 AUDIO
TITLE “What If We Give It Away?”
PERFORMER “R.E.M.”
INDEX 00 26:11:20
INDEX 01 26:11:25
TRACK 10 AUDIO
TITLE “Just A Touch”
PERFORMER “R.E.M.”
INDEX 01 29:46:10
TRACK 11 AUDIO
TITLE “Swan Swan H”
PERFORMER “R.E.M.”
INDEX 01 32:47:00
TRACK 12 AUDIO
TITLE “Superman”
PERFORMER “R.E.M.”
INDEX 00 35:29:45
INDEX 01 35:37:07

Leave a Reply

Your email address will not be published. Required fields are marked *

This site uses Akismet to reduce spam. Learn how your comment data is processed.