R.E.M. – Green




Artist: R.E.M.
Year: 1988
Genre: Rock
Notes: Discogs
Add. Notes:
Encoder: FLAC
Bitrate: ~800 kBit/s (44.1 kHz/16 Bit/s)
Bin/Cue incl.: Yes
Size: 241,81 MB
Password: “slam” (without ” “)


http://www.share-online.biz/dl/S3J8EVRPY7TQ

https://rapidgator.net/file/ceb301d681dc7714bce534d9d776c5da

https://uploadbyte.com/792j30pf55sd

https://uploadever.com/qoo309jrgyjj

https://justupload.io/t8j3wtook8xk

Tracklist:

1 - Pop Song 89 - 3:03
2 - Get Up - 2:35
3 - You Are The Everything - 3:45
4 - Stand - 3:10
5 - World Leader Pretend - 4:15
6 - The Wrong Child - 3:35
7 - Orange Crush - 3:50
8 - Turn You Inside Out - 4:15
9 - Hairshirt - 3:55
10 - I Remember California - 5:05
11 - Untitled - 3:09

EAC-Log, CUE-Sheed & NFO:

Click to open spoiler
Exact Audio Copy V1.0 beta 3 from 29. August 2011

EAC extraction logfile from 3. March 2013, 17:22

R.E.M. / Green

Used drive : OPTIARC DVD-ROM DDU1681S Adapter: 6 ID: 0

Read mode : Secure
Utilize accurate stream : Yes
Defeat audio cache : Yes
Make use of C2 pointers : No

Read offset correction : 6
Overread into Lead-In and Lead-Out : No
Fill up missing offset samples with silence : Yes
Delete leading and trailing silent blocks : No
Null samples used in CRC calculations : Yes
Used interface : Native Win32 interface for Win NT & 2000

Used output format : Internal WAV Routines
Sample format : 44.100 Hz; 16 Bit; Stereo

TOC of the extracted CD

Track | Start | Length | Start sector | End sector
———————————————————
1 | 0:00.32 | 3:04.70 | 32 | 13901
2 | 3:05.27 | 2:41.58 | 13902 | 26034
3 | 5:47.10 | 3:44.50 | 26035 | 42884
4 | 9:31.60 | 3:12.72 | 42885 | 57356
5 | 12:44.57 | 4:19.55 | 57357 | 76836
6 | 17:04.37 | 3:38.25 | 76837 | 93211
7 | 20:42.62 | 3:51.48 | 93212 | 110584
8 | 24:34.35 | 4:17.22 | 110585 | 129881
9 | 28:51.57 | 3:55.68 | 129882 | 147574
10 | 32:47.50 | 5:03.67 | 147575 | 170366
11 | 37:51.42 | 3:09.60 | 170367 | 184601

Range status and errors

Selected range

Filename G:\Раздачи\R.E.M. – Green.wav

Peak level 95.8 %
Extraction speed 4.0 X
Range quality 100.0 %
Copy CRC ADD57779
Copy OK

No errors occurred

AccurateRip summary

Track 1 accurately ripped (confidence 6) [93F7294B] (AR v2)
Track 2 accurately ripped (confidence 7) [476F8126] (AR v2)
Track 3 accurately ripped (confidence 7) [CD675ED2] (AR v2)
Track 4 accurately ripped (confidence 7) [50DEB1B9] (AR v2)
Track 5 accurately ripped (confidence 7) [B01E5B43] (AR v2)
Track 6 accurately ripped (confidence 7) [644E9FAC] (AR v2)
Track 7 accurately ripped (confidence 7) [8F6C4DE6] (AR v2)
Track 8 accurately ripped (confidence 7) [D9705E62] (AR v2)
Track 9 accurately ripped (confidence 7) [00D6D74A] (AR v2)
Track 10 accurately ripped (confidence 7) [AB6D2868] (AR v2)
Track 11 accurately ripped (confidence 7) [A28F3E2D] (AR v2)

All tracks accurately ripped

End of status report

REM GENRE Alternative
REM DATE 1988
REM DISCID 9F099D0B
REM COMMENT “ExactAudioCopy v1.0b3”
PERFORMER “R.E.M.”
TITLE “Green”
FILE “R.E.M. – Green.ape” WAVE
TRACK 01 AUDIO
TITLE “Pop Song 89”
PERFORMER “R.E.M.”
INDEX 00 00:00:00
INDEX 01 00:00:32
TRACK 02 AUDIO
TITLE “Get Up”
PERFORMER “R.E.M.”
INDEX 01 03:05:27
TRACK 03 AUDIO
TITLE “You Are the Everything”
PERFORMER “R.E.M.”
INDEX 00 05:45:45
INDEX 01 05:47:10
TRACK 04 AUDIO
TITLE “Stand”
PERFORMER “R.E.M.”
INDEX 00 09:28:47
INDEX 01 09:31:60
TRACK 05 AUDIO
TITLE “World Leader Pretend”
PERFORMER “R.E.M.”
INDEX 00 12:42:16
INDEX 01 12:44:57
TRACK 06 AUDIO
TITLE “The Wrong Child”
PERFORMER “R.E.M.”
INDEX 00 17:04:07
INDEX 01 17:04:37
TRACK 07 AUDIO
TITLE “Orange Crush”
PERFORMER “R.E.M.”
INDEX 00 20:39:70
INDEX 01 20:42:62
TRACK 08 AUDIO
TITLE “Turn You Inside-Out”
PERFORMER “R.E.M.”
INDEX 00 24:34:19
INDEX 01 24:34:35
TRACK 09 AUDIO
TITLE “Hairshirt”
PERFORMER “R.E.M.”
INDEX 00 28:51:10
INDEX 01 28:51:57
TRACK 10 AUDIO
TITLE “I Remember California”
PERFORMER “R.E.M.”
INDEX 00 32:47:27
INDEX 01 32:47:50
TRACK 11 AUDIO
TITLE “[Untitled Track]”
PERFORMER “R.E.M.”
INDEX 00 37:50:09
INDEX 01 37:51:42

Leave a Reply

Your email address will not be published. Required fields are marked *

This site uses Akismet to reduce spam. Learn how your comment data is processed.