R.E.M. – Fables Of The Reconstruction




Artist: R.E.M.
Year: 1985
Genre: Rock
Notes: Discogs
Add. Notes:
Cover incl.: Yes
Encoder: FLAC
Bitrate: ~800 kBit/s (44.1 kHz/16 Bit/s)
Log & Cue incl.: Yes
Size: 225,64 MB
Password: “slam” (without ” “)


All Downloads/Hosters are compatible

Download 1
Turbobit.net
Rapidgator.net
UploadByte.com
UploadEver.com
JustUpload.io
Download 2
Turbobit.net
Rapidgator.net
UploadByte.com
UploadEver.com
JustUpload.io
Download 3
Turbobit.net
Rapidgator.net
UploadByte.com
UploadEver.com
JustUpload.io

Tracklist:

1 - Feeling Gravitys Pull - 4:49
2 - Maps And Legends - 3:01
3 - Driver 8 - 3:22
4 - Life And How To Live It - 4:05
5 - Old Man Kensey - 4:07
6 - Can't Get There From Here - 3:39
7 - Green Grow The Rushes - 3:45
8 - Kohoutek - 3:14
9 - Auctioneer (Another Engine) - 2:44
10 - Good Advices - 3:28
11 - Wendell Gee - 3:01

EAC-Log, CUE-Sheed & NFO:

Click to open spoiler
Exact Audio Copy V1.0 beta 3 from 29. August 2011

EAC extraction logfile from 3. March 2013, 16:22

R.E.M. / Fables of the Reconstruction

Used drive : OPTIARC DVD-ROM DDU1681S Adapter: 6 ID: 0

Read mode : Secure
Utilize accurate stream : Yes
Defeat audio cache : Yes
Make use of C2 pointers : No

Read offset correction : 6
Overread into Lead-In and Lead-Out : No
Fill up missing offset samples with silence : Yes
Delete leading and trailing silent blocks : No
Null samples used in CRC calculations : Yes
Used interface : Native Win32 interface for Win NT & 2000

Used output format : Internal WAV Routines
Sample format : 44.100 Hz; 16 Bit; Stereo

TOC of the extracted CD

Track | Start | Length | Start sector | End sector
———————————————————
1 | 0:00.00 | 4:50.65 | 0 | 21814
2 | 4:50.65 | 3:10.40 | 21815 | 36104
3 | 8:01.30 | 3:23.60 | 36105 | 51389
4 | 11:25.15 | 4:08.15 | 51390 | 70004
5 | 15:33.30 | 4:10.55 | 70005 | 88809
6 | 19:44.10 | 3:39.35 | 88810 | 105269
7 | 23:23.45 | 3:46.02 | 105270 | 122221
8 | 27:09.47 | 3:17.58 | 122222 | 137054
9 | 30:27.30 | 2:44.32 | 137055 | 149386
10 | 33:11.62 | 3:30.43 | 149387 | 165179
11 | 36:42.30 | 3:01.15 | 165180 | 178769

Range status and errors

Selected range

Filename G:\Раздачи\R.E.M. – Fables of the Reconstruction.wav

Peak level 88.7 %
Extraction speed 3.7 X
Range quality 100.0 %
Copy CRC 076C0C09
Copy OK

No errors occurred

AccurateRip summary

Track 1 accurately ripped (confidence 2) [0AF34D8C] (AR v2)
Track 2 accurately ripped (confidence 3) [0DFF424D] (AR v2)
Track 3 accurately ripped (confidence 2) [CEB5C059] (AR v2)
Track 4 accurately ripped (confidence 3) [98E28CBA] (AR v2)
Track 5 accurately ripped (confidence 3) [FAC0429A] (AR v2)
Track 6 accurately ripped (confidence 2) [B8F7A6E8] (AR v2)
Track 7 accurately ripped (confidence 3) [45CB453F] (AR v2)
Track 8 accurately ripped (confidence 3) [A6802E34] (AR v2)
Track 9 accurately ripped (confidence 3) [5559F750] (AR v2)
Track 10 accurately ripped (confidence 3) [888450BF] (AR v2)
Track 11 accurately ripped (confidence 3) [8158A301] (AR v2)

All tracks accurately ripped

End of status report

REM GENRE “Alt. Rock”
REM DATE 1985
REM DISCID 9B094F0B
REM COMMENT “ExactAudioCopy v1.0b3”
PERFORMER “R.E.M.”
TITLE “Fables of the Reconstruction”
FILE “R.E.M. – Fables of the Reconstruction.ape” WAVE
TRACK 01 AUDIO
TITLE “Feeling Gravity’s Pull”
PERFORMER “R.E.M.”
INDEX 01 00:00:00
TRACK 02 AUDIO
TITLE “Maps and Legends”
PERFORMER “R.E.M.”
INDEX 01 04:50:65
TRACK 03 AUDIO
TITLE “Driver 8”
PERFORMER “R.E.M.”
INDEX 01 08:01:30
TRACK 04 AUDIO
TITLE “Life and How To Live It”
PERFORMER “R.E.M.”
INDEX 01 11:25:15
TRACK 05 AUDIO
TITLE “Old Man Kensey”
PERFORMER “R.E.M.”
INDEX 00 15:33:10
INDEX 01 15:33:30
TRACK 06 AUDIO
TITLE “Can’t Get There From Here”
PERFORMER “R.E.M.”
INDEX 00 19:43:63
INDEX 01 19:44:10
TRACK 07 AUDIO
TITLE “Green Grow the Rushes”
PERFORMER “R.E.M.”
INDEX 01 23:23:45
TRACK 08 AUDIO
TITLE “Kohoutek”
PERFORMER “R.E.M.”
INDEX 01 27:09:47
TRACK 09 AUDIO
TITLE “Auctioneer (Another Engine)”
PERFORMER “R.E.M.”
INDEX 01 30:27:30
TRACK 10 AUDIO
TITLE “Good Advices”
PERFORMER “R.E.M.”
INDEX 01 33:11:62
TRACK 11 AUDIO
TITLE “Wendell Gee”
PERFORMER “R.E.M.”
INDEX 01 36:42:30

Leave a Reply

Your email address will not be published. Required fields are marked *

This site uses Akismet to reduce spam. Learn how your comment data is processed.