R.E.M. – Document




Artist: R.E.M.
Year: 1987
Genre: Rock
Notes: Discogs
Add. Notes:
Encoder: FLAC
Bitrate: ~900 kBit/s (44.1 kHz/16 Bit/s)
Bin/Cue incl.: Yes
Size: 250,81 MB
Password: “slam” (without ” “)


http://www.share-online.biz/dl/27SIYSRP4TI
https://rapidgator.net/file/e6774c7bcd9a0988c9b7d62c21301f59
https://uploadbyte.com/0a3sai2lifvh
https://justupload.io/h1nc2n32tt2d
https://uploadever.com/qac06pno7r4f

Tracklist:

1 - Finest Worksong - 3:48
2 - Welcome To The Occupation - 2:48
3 - Exhuming McCarthy - 3:19
4 - Disturbance At The Heron House - 3:33
5 - Strange - 2:32
6 - It's The End Of The World As We Know It (And I Feel 
Fine) - 4:07
7 - The One I Love - 3:17
8 - Fireplace - 3:24
9 - Lightnin' Hopkins - 3:18
10 - King Of Birds - 4:07
11 - Oddfellows Local 151 - 5:21

EAC-Log, CUE-Sheed & NFO:

Click to open spoiler
Exact Audio Copy V1.0 beta 3 from 29. August 2011

EAC extraction logfile from 3. March 2013, 16:38

R.E.M. / Document

Used drive : OPTIARC DVD-ROM DDU1681S Adapter: 6 ID: 0

Read mode : Secure
Utilize accurate stream : Yes
Defeat audio cache : Yes
Make use of C2 pointers : No

Read offset correction : 6
Overread into Lead-In and Lead-Out : No
Fill up missing offset samples with silence : Yes
Delete leading and trailing silent blocks : No
Null samples used in CRC calculations : Yes
Used interface : Native Win32 interface for Win NT & 2000

Used output format : Internal WAV Routines
Sample format : 44.100 Hz; 16 Bit; Stereo

TOC of the extracted CD

Track | Start | Length | Start sector | End sector
———————————————————
1 | 0:00.00 | 3:50.07 | 0 | 17256
2 | 3:50.07 | 2:48.60 | 17257 | 29916
3 | 6:38.67 | 3:21.45 | 29917 | 45036
4 | 10:00.37 | 3:34.08 | 45037 | 61094
5 | 13:34.45 | 2:33.22 | 61095 | 72591
6 | 16:07.67 | 4:06.70 | 72592 | 91111
7 | 20:14.62 | 3:18.00 | 91112 | 105961
8 | 23:32.62 | 3:24.38 | 105962 | 121299
9 | 26:57.25 | 3:21.20 | 121300 | 136394
10 | 30:18.45 | 4:10.25 | 136395 | 155169
11 | 34:28.70 | 5:21.50 | 155170 | 179294

Range status and errors

Selected range

Filename G:\Раздачи\R.E.M. – Document.wav

Peak level 100.0 %
Extraction speed 3.7 X
Range quality 100.0 %
Copy CRC 86B6DCB4
Copy OK

No errors occurred

AccurateRip summary

Track 1 accurately ripped (confidence 3) [4CFB3E49] (AR v1)
Track 2 accurately ripped (confidence 3) [14A6A3C6] (AR v1)
Track 3 accurately ripped (confidence 3) [A7C04A31] (AR v1)
Track 4 accurately ripped (confidence 3) [06B4CC7E] (AR v1)
Track 5 accurately ripped (confidence 3) [063945BD] (AR v1)
Track 6 accurately ripped (confidence 3) [A97A056B] (AR v1)
Track 7 accurately ripped (confidence 3) [6F09C5E7] (AR v1)
Track 8 accurately ripped (confidence 3) [852E5688] (AR v1)
Track 9 accurately ripped (confidence 3) [E07E9C58] (AR v1)
Track 10 accurately ripped (confidence 3) [96AF17D4] (AR v1)
Track 11 accurately ripped (confidence 3) [3C7C275F] (AR v1)

All tracks accurately ripped

End of status report

REM GENRE “Alternative Rock”
REM DATE 1987
REM DISCID 7509560B
REM COMMENT “ExactAudioCopy v1.0b3”
PERFORMER “R.E.M.”
TITLE “Document”
FILE “R.E.M. – Document.ape” WAVE
TRACK 01 AUDIO
TITLE “Finest Worksong”
PERFORMER “R.E.M.”
INDEX 01 00:00:00
TRACK 02 AUDIO
TITLE “Welcome to the Occupation”
PERFORMER “R.E.M.”
INDEX 01 03:50:07
TRACK 03 AUDIO
TITLE “Exhuming McCarthy”
PERFORMER “R.E.M.”
INDEX 00 06:37:18
INDEX 01 06:38:67
TRACK 04 AUDIO
TITLE “Disturbance at the Heron House”
PERFORMER “R.E.M.”
INDEX 00 09:57:65
INDEX 01 10:00:37
TRACK 05 AUDIO
TITLE “Strange”
PERFORMER “R.E.M.”
INDEX 00 13:32:10
INDEX 01 13:34:45
TRACK 06 AUDIO
TITLE “It’s the End of the World as We Know It (And I Feel Fine)”
PERFORMER “R.E.M.”
INDEX 00 16:06:38
INDEX 01 16:07:67
TRACK 07 AUDIO
TITLE “The One I Love”
PERFORMER “R.E.M.”
INDEX 00 20:14:41
INDEX 01 20:14:62
TRACK 08 AUDIO
TITLE “Fireplace”
PERFORMER “R.E.M.”
INDEX 01 23:32:62
TRACK 09 AUDIO
TITLE “Lightnin’ Hopkins”
PERFORMER “R.E.M.”
INDEX 00 26:54:67
INDEX 01 26:57:25
TRACK 10 AUDIO
TITLE “King of Birds”
PERFORMER “R.E.M.”
INDEX 01 30:18:45
TRACK 11 AUDIO
TITLE “Oddfellows Local 151”
PERFORMER “R.E.M.”
INDEX 00 34:28:50
INDEX 01 34:28:70

Leave a Reply

Your email address will not be published. Required fields are marked *

This site uses Akismet to reduce spam. Learn how your comment data is processed.