R.E.M. – Dead Letter Office




Artist: R.E.M.
Year: 1987
Genre: Rock
Notes: Discogs
Add. Notes:
Cover incl.: Yes
Encoder: FLAC
Bitrate: ~900 kBit/s (44.1 kHz/16 Bit/s)
Log & Cue incl.: Yes
Size: 394,13 MB
Password: “slam” (without ” “)


All Downloads/Hosters are compatible

Download 1
Turbobit.net
Rapidgator.net
UploadEver.com
JustUpload.io
UsersDrive.com
Download 2
Turbobit.net
Rapidgator.net
UploadEver.com
JustUpload.io
UsersDrive.com
Download 3
Turbobit.net
Rapidgator.net
UploadEver.com
JustUpload.io
UsersDrive.com

Tracklist:

1 - Crazy - 3:00
2 - There She Goes Again - 2:49
3 - Burning Down - 4:10
4 - Voice Of Harold - 4:21
5 - Burning Hell - 3:48
6 - White Tornado - 1:59
7 - Toys In The Attic - 2:26
8 - Windout - 1:57
9 - Ages Of You - 3:39
10 - Pale Blue Eyes - 2:49
11 - Rotary Ten - 2:00
12 - Bandwagon - 2:12
13 - Femme Fatale - 2:47
14 - Walters Theme - 1:35
15 - King Of The Road - 3:08
16 - Wolves, Lower - 4:08
17 - Gardening At Night - 4:33
18 - Carnival Of Sorts (Box Cars) - 3:51
19 - 1,000,000 - 3:04
20 - Stumble - 5:39

EAC-Log, CUE-Sheed & NFO:

Click to open spoiler
Exact Audio Copy V1.0 beta 3 from 29. August 2011

EAC extraction logfile from 3. March 2013, 17:00

R.E.M. / Dead Letter Office

Used drive : OPTIARC DVD-ROM DDU1681S Adapter: 6 ID: 0

Read mode : Secure
Utilize accurate stream : Yes
Defeat audio cache : Yes
Make use of C2 pointers : No

Read offset correction : 6
Overread into Lead-In and Lead-Out : No
Fill up missing offset samples with silence : Yes
Delete leading and trailing silent blocks : No
Null samples used in CRC calculations : Yes
Used interface : Native Win32 interface for Win NT & 2000

Used output format : Internal WAV Routines
Sample format : 44.100 Hz; 16 Bit; Stereo

TOC of the extracted CD

Track | Start | Length | Start sector | End sector
———————————————————
1 | 0:00.33 | 3:03.02 | 33 | 13759
2 | 3:03.35 | 2:50.63 | 13760 | 26572
3 | 5:54.23 | 4:13.55 | 26573 | 45602
4 | 10:08.03 | 4:25.27 | 45603 | 65504
5 | 14:33.30 | 3:49.15 | 65505 | 82694
6 | 18:22.45 | 1:56.10 | 82695 | 91404
7 | 20:18.55 | 2:30.38 | 91405 | 102692
8 | 22:49.18 | 2:00.05 | 102693 | 111697
9 | 24:49.23 | 3:44.17 | 111698 | 128514
10 | 28:33.40 | 2:54.40 | 128515 | 141604
11 | 31:28.05 | 2:00.63 | 141605 | 150667
12 | 33:28.68 | 2:17.55 | 150668 | 160997
13 | 35:46.48 | 2:50.15 | 160998 | 173762
14 | 38:36.63 | 1:31.47 | 173763 | 180634
15 | 40:08.35 | 3:16.03 | 180635 | 195337
16 | 43:24.38 | 4:13.65 | 195338 | 214377
17 | 47:38.28 | 3:30.17 | 214378 | 230144
18 | 51:08.45 | 3:55.10 | 230145 | 247779
19 | 55:03.55 | 3:06.63 | 247780 | 261792
20 | 58:10.43 | 5:39.47 | 261793 | 287264

Range status and errors

Selected range

Filename G:\Раздачи\R.E.M. – Dead Letter Office.wav

Peak level 100.0 %
Extraction speed 4.9 X
Range quality 100.0 %
Copy CRC 5C5144B0
Copy OK

No errors occurred

AccurateRip summary

Track 1 accurately ripped (confidence 9) [F0EBA163] (AR v1)
Track 2 accurately ripped (confidence 9) [40BEC8C0] (AR v1)
Track 3 accurately ripped (confidence 9) [777CECEE] (AR v1)
Track 4 accurately ripped (confidence 9) [416F53AF] (AR v1)
Track 5 accurately ripped (confidence 9) [2CBBA0D2] (AR v1)
Track 6 accurately ripped (confidence 9) [C44B63D0] (AR v1)
Track 7 accurately ripped (confidence 9) [CD1E7803] (AR v1)
Track 8 accurately ripped (confidence 9) [BDD2998E] (AR v1)
Track 9 accurately ripped (confidence 9) [FF11B33F] (AR v1)
Track 10 accurately ripped (confidence 9) [05B676E4] (AR v1)
Track 11 accurately ripped (confidence 9) [A80CE603] (AR v1)
Track 12 accurately ripped (confidence 9) [CA56E71A] (AR v1)
Track 13 accurately ripped (confidence 9) [7EAB21F3] (AR v1)
Track 14 accurately ripped (confidence 9) [1F9F53B1] (AR v1)
Track 15 accurately ripped (confidence 9) [C199D785] (AR v1)
Track 16 accurately ripped (confidence 9) [CE531FCC] (AR v1)
Track 17 accurately ripped (confidence 9) [F42AFC10] (AR v1)
Track 18 accurately ripped (confidence 9) [3131D63D] (AR v1)
Track 19 accurately ripped (confidence 9) [3D31D682] (AR v1)
Track 20 accurately ripped (confidence 9) [AFD63AF9] (AR v1)

All tracks accurately ripped

End of status report

REM GENRE Rock
REM DATE 1987
REM DISCID EB0EF614
REM COMMENT “ExactAudioCopy v1.0b3”
PERFORMER “R.E.M.”
TITLE “Dead Letter Office”
FILE “R.E.M. – Dead Letter Office.ape” WAVE
TRACK 01 AUDIO
TITLE “Crazy”
PERFORMER “R.E.M.”
INDEX 00 00:00:00
INDEX 01 00:00:33
TRACK 02 AUDIO
TITLE “There She Goes Again”
PERFORMER “R.E.M.”
INDEX 01 03:03:35
TRACK 03 AUDIO
TITLE “Burning Down”
PERFORMER “R.E.M.”
INDEX 00 05:52:44
INDEX 01 05:54:23
TRACK 04 AUDIO
TITLE “Voice Of Herold”
PERFORMER “R.E.M.”
INDEX 00 10:07:51
INDEX 01 10:08:03
TRACK 05 AUDIO
TITLE “Burning Hell”
PERFORMER “R.E.M.”
INDEX 00 14:32:64
INDEX 01 14:33:30
TRACK 06 AUDIO
TITLE “White Tornado”
PERFORMER “R.E.M.”
INDEX 00 18:22:44
INDEX 01 18:22:45
TRACK 07 AUDIO
TITLE “Toys In The Attic”
PERFORMER “R.E.M.”
INDEX 00 20:18:43
INDEX 01 20:18:55
TRACK 08 AUDIO
TITLE “Windout”
PERFORMER “R.E.M.”
INDEX 00 22:48:00
INDEX 01 22:49:18
TRACK 09 AUDIO
TITLE “Ages Of You”
PERFORMER “R.E.M.”
INDEX 00 24:49:01
INDEX 01 24:49:23
TRACK 10 AUDIO
TITLE “Pale Blue Eyes”
PERFORMER “R.E.M.”
INDEX 00 28:30:43
INDEX 01 28:33:40
TRACK 11 AUDIO
TITLE “Rotary Ten”
PERFORMER “R.E.M.”
INDEX 00 31:25:73
INDEX 01 31:28:05
TRACK 12 AUDIO
TITLE “Bandwagon”
PERFORMER “R.E.M.”
INDEX 00 33:28:45
INDEX 01 33:28:68
TRACK 13 AUDIO
TITLE “Femme Fatale”
PERFORMER “R.E.M.”
INDEX 00 35:45:68
INDEX 01 35:46:48
TRACK 14 AUDIO
TITLE “Walters Theme”
PERFORMER “R.E.M.”
INDEX 00 38:35:03
INDEX 01 38:36:63
TRACK 15 AUDIO
TITLE “King Of The Road”
PERFORMER “R.E.M.”
INDEX 01 40:08:35
TRACK 16 AUDIO
TITLE “Wolves, Lower”
PERFORMER “R.E.M.”
INDEX 00 43:21:66
INDEX 01 43:24:38
TRACK 17 AUDIO
TITLE “Gardening At Night”
PERFORMER “R.E.M.”
INDEX 00 47:34:00
INDEX 01 47:38:28
TRACK 18 AUDIO
TITLE “Carnival Of Sorts (Box Cars)”
PERFORMER “R.E.M.”
INDEX 01 51:08:45
TRACK 19 AUDIO
TITLE “1,000,000”
PERFORMER “R.E.M.”
INDEX 00 55:03:45
INDEX 01 55:03:55
TRACK 20 AUDIO
TITLE “Stumble”
PERFORMER “R.E.M.”
INDEX 00 58:09:28
INDEX 01 58:10:43

Leave a Reply

Your email address will not be published. Required fields are marked *

This site uses Akismet to reduce spam. Learn how your comment data is processed.