R.E.M. – Automatic For The People




Artist: R.E.M.
Year: 1992
Genre: Rock
Notes: Discogs
Add. Notes:
Cover incl.: Yes
Encoder: FLAC
Bitrate: ~900 kBit/s (44.1 kHz/16 Bit/s)
Log & Cue incl.: Yes
Size: 300,19 MB
Password: “slam” (without ” “)


All Downloads/Hosters are compatible

Download 1
Turbobit.net
Rapidgator.net
UploadEver.com
JustUpload.io
UsersDrive.com
Download 2
Turbobit.net
Rapidgator.net
UploadEver.com
JustUpload.io
UsersDrive.com
Download 3
Turbobit.net
Rapidgator.net
UploadEver.com
JustUpload.io
UsersDrive.com

Tracklist:

1 - Drive - 4:31
2 - Try Not To Breathe - 3:50
3 - The Sidewinder Sleeps Tonite - 4:09
4 - Everybody Hurts - 5:20
5 - New Orleans Instrumental No. 1 - 2:15
6 - Sweetness Follows - 4:21
7 - Monty Got A Raw Deal - 3:17
8 - Ignoreland - 4:27
9 - Star Me Kitten - 3:16
10 - Man On The Moon - 5:14
11 - Nightswimming - 4:18
12 - Find The River - 3:49

EAC-Log, CUE-Sheed & NFO:

Click to open spoiler
Exact Audio Copy V1.0 beta 3 from 29. August 2011

EAC extraction logfile from 3. March 2013, 17:55

R.E.M. / Automatic for the People

Used drive : OPTIARC DVD-ROM DDU1681S Adapter: 6 ID: 0

Read mode : Secure
Utilize accurate stream : Yes
Defeat audio cache : Yes
Make use of C2 pointers : No

Read offset correction : 6
Overread into Lead-In and Lead-Out : No
Fill up missing offset samples with silence : Yes
Delete leading and trailing silent blocks : No
Null samples used in CRC calculations : Yes
Used interface : Native Win32 interface for Win NT & 2000

Used output format : Internal WAV Routines
Sample format : 44.100 Hz; 16 Bit; Stereo

TOC of the extracted CD

Track | Start | Length | Start sector | End sector
———————————————————
1 | 0:00.32 | 4:31.25 | 32 | 20381
2 | 4:31.57 | 3:50.43 | 20382 | 37674
3 | 8:22.25 | 4:09.27 | 37675 | 56376
4 | 12:31.52 | 5:20.20 | 56377 | 80396
5 | 17:51.72 | 2:15.50 | 80397 | 90571
6 | 20:07.47 | 4:21.43 | 90572 | 110189
7 | 24:29.15 | 3:17.52 | 110190 | 125016
8 | 27:46.67 | 4:27.35 | 125017 | 145076
9 | 32:14.27 | 3:16.15 | 145077 | 159791
10 | 35:30.42 | 5:14.13 | 159792 | 183354
11 | 40:44.55 | 4:18.05 | 183355 | 202709
12 | 45:02.60 | 3:49.55 | 202710 | 219939

Range status and errors

Selected range

Filename G:\Раздачи\R.E.M. – Automatic for the People.wav

Peak level 100.0 %
Extraction speed 4.1 X
Range quality 99.9 %
Copy CRC DF15BF66
Copy OK

No errors occurred

AccurateRip summary

Track 1 accurately ripped (confidence 9) [E0EC467E] (AR v2)
Track 2 accurately ripped (confidence 8) [B0ACBA42] (AR v2)
Track 3 accurately ripped (confidence 9) [25A54259] (AR v2)
Track 4 accurately ripped (confidence 9) [4F322187] (AR v2)
Track 5 accurately ripped (confidence 9) [16468F53] (AR v2)
Track 6 accurately ripped (confidence 9) [C4684F52] (AR v2)
Track 7 accurately ripped (confidence 9) [DDAFECBB] (AR v2)
Track 8 accurately ripped (confidence 9) [1BEED565] (AR v2)
Track 9 accurately ripped (confidence 9) [E8AB0612] (AR v2)
Track 10 accurately ripped (confidence 9) [1A80615B] (AR v2)
Track 11 accurately ripped (confidence 9) [ADF46D19] (AR v2)
Track 12 accurately ripped (confidence 9) [50501808] (AR v2)

All tracks accurately ripped

End of status report

REM GENRE “Alternative Rock”
REM DATE 1992
REM DISCID 970B740C
REM COMMENT “ExactAudioCopy v1.0b3”
PERFORMER “R.E.M.”
TITLE “Automatic for the People”
FILE “R.E.M. – Automatic for the People.ape” WAVE
TRACK 01 AUDIO
TITLE “Drive”
PERFORMER “R.E.M.”
INDEX 00 00:00:00
INDEX 01 00:00:32
TRACK 02 AUDIO
TITLE “Try Not to Breathe”
PERFORMER “R.E.M.”
INDEX 01 04:31:57
TRACK 03 AUDIO
TITLE “The Sidewinder Sleeps Tonite”
PERFORMER “R.E.M.”
INDEX 01 08:22:25
TRACK 04 AUDIO
TITLE “Everybody Hurts”
PERFORMER “R.E.M.”
INDEX 00 12:31:32
INDEX 01 12:31:52
TRACK 05 AUDIO
TITLE “New Orleans Instrumental No. 1”
PERFORMER “R.E.M.”
INDEX 00 17:50:47
INDEX 01 17:51:72
TRACK 06 AUDIO
TITLE “Sweetness Follows”
PERFORMER “R.E.M.”
INDEX 00 20:06:74
INDEX 01 20:07:47
TRACK 07 AUDIO
TITLE “Monty Got a Raw Deal”
PERFORMER “R.E.M.”
INDEX 00 24:28:34
INDEX 01 24:29:15
TRACK 08 AUDIO
TITLE “Ignoreland”
PERFORMER “R.E.M.”
INDEX 01 27:46:67
TRACK 09 AUDIO
TITLE “Star Me Kitten”
PERFORMER “R.E.M.”
INDEX 00 32:13:36
INDEX 01 32:14:27
TRACK 10 AUDIO
TITLE “Man on the Moon”
PERFORMER “R.E.M.”
INDEX 01 35:30:42
TRACK 11 AUDIO
TITLE “Nightswimming”
PERFORMER “R.E.M.”
INDEX 00 40:43:30
INDEX 01 40:44:55
TRACK 12 AUDIO
TITLE “Find the River”
PERFORMER “R.E.M.”
INDEX 00 45:02:20
INDEX 01 45:02:60

Leave a Reply

Your email address will not be published. Required fields are marked *

This site uses Akismet to reduce spam. Learn how your comment data is processed.