Queensryche – The Warning




No Cover available

Artist: Queensryche
Year: 1984/1987
Genre: Metal
Notes: Discogs
Add. Notes:
Watch Songs on: YouTube
Cover incl.: Yes
Encoder: FLAC
Bitrate: ~900 kBit/s (44.1 kHz/16 Bit/s)
Log & Cue incl.: Yes/Yes
Size: 325,1 MB
Password: “slam” (without ” “)


All Downloads/Hosters are compatible

Download 1
KatFile.com
Turbobit.net
FileFactory.com
Rapidgator.net
Download 2
KatFile.com
Turbobit.net
FileFactory.com
Rapidgator.net

Tracklist:

1 Warning 4:46
2 En Force 5:16
3 Deliverance 3:21
4 No Sanctuary 6:05
5 N M 156 4:38
6 Take Hold Of The Flame 4:57
7 Before The Storm 5:13
8 Child Of Fire 4:34
9 Roads To Madness 9:40

EAC-Log, CUE-Sheed & NFO:

Click to open spoiler
Exact Audio Copy V1.0 beta 3 from 29. August 2011

EAC extraction logfile from 22. August 2013, 20:40

Queensryche / The Warning [EMI-Manhattan, CDP 7 46557 2, UK]

Used drive : PIONEER DVD-RW DVR-112D Adapter: 0 ID: 0

Read mode : Secure
Utilize accurate stream : Yes
Defeat audio cache : Yes
Make use of C2 pointers : No

Read offset correction : 48
Overread into Lead-In and Lead-Out : No
Fill up missing offset samples with silence : Yes
Delete leading and trailing silent blocks : No
Null samples used in CRC calculations : Yes
Used interface : Installed external ASPI interface

Used output format : User Defined Encoder
Selected bitrate : 1024 kBit/s
Quality : High
Add ID3 tag : No
Command line compressor : C:\Program Files\Exact Audio Copy\FLAC\FLAC.EXE
Additional command line options : -V -8 -T “Date=%year%” -T “Genre=%genre%” %source%

TOC of the extracted CD

Track | Start | Length | Start sector | End sector
———————————————————
1 | 0:00.00 | 4:46.62 | 0 | 21511
2 | 4:46.62 | 5:17.40 | 21512 | 45326
3 | 10:04.27 | 3:20.20 | 45327 | 60346
4 | 13:24.47 | 6:05.68 | 60347 | 87789
5 | 19:30.40 | 4:42.00 | 87790 | 108939
6 | 24:12.40 | 4:57.40 | 108940 | 131254
7 | 29:10.05 | 4:21.30 | 131255 | 150859
8 | 33:31.35 | 5:27.20 | 150860 | 175404
9 | 38:58.55 | 9:40.12 | 175405 | 218916

Range status and errors

Selected range

Filename C:\CDRip by Deminbek\Queensryche – The Warning [EMI-Manhattan, CDP 7 46557 2, UK].wav

Peak level 100.0 %
Extraction speed 6.6 X
Range quality 99.9 %
Test CRC 9DF4C27F
Copy CRC 9DF4C27F
Copy OK

No errors occurred

AccurateRip summary

Track 1 accurately ripped (confidence 29) [986AFAFC] (AR v2)
Track 2 accurately ripped (confidence 30) [BC995CE6] (AR v2)
Track 3 accurately ripped (confidence 30) [36CBC301] (AR v2)
Track 4 accurately ripped (confidence 29) [B723D394] (AR v2)
Track 5 accurately ripped (confidence 30) [75A7AEBF] (AR v2)
Track 6 accurately ripped (confidence 31) [75B908DF] (AR v2)
Track 7 accurately ripped (confidence 30) [F20D5090] (AR v2)
Track 8 accurately ripped (confidence 29) [EE940002] (AR v2)
Track 9 accurately ripped (confidence 29) [2544401A] (AR v2)

All tracks accurately ripped

End of status report

—- CUETools DB Plugin V2.1.3

[CTDB TOCID: dQHpjamO32DIFoBSj7KMLYcHYZo-] found, Submit result: dQHpjamO32DIFoBSj7KMLYcHYZo- has been confirmed
[95f888b5] (69/75) Accurately ripped
[aa53d75c] (01/75) No match
[1c969d95] (01/75) No match
[c1925989] (01/75) No match
[97176764] (01/75) No match
[a55ee2fa] (01/75) No match
[9c3fbd66] (01/75) No match

==== Log checksum BCB26C590144B15F8FCFC482C7A958F51D817C61C1DD217615EC0C84DA0F793A ====

REM GENRE “Heavy Metal”
REM DATE 1984
REM DISCID 650B6609
REM COMMENT “ExactAudioCopy v1.0b3”
CATALOG 0000000000000
PERFORMER “Queensryche”
TITLE “The Warning (CDP 7 46557 2, U.K.)”
FILE “Queensryche – The Warning (CDP 7 46557 2, U.K.).flac” WAVE
TRACK 01 AUDIO
TITLE “Warning”
PERFORMER “Queensryche”
INDEX 01 00:00:00
TRACK 02 AUDIO
TITLE “En Force”
PERFORMER “Queensryche”
INDEX 00 04:45:57
INDEX 01 04:46:62
TRACK 03 AUDIO
TITLE “Deliverance”
PERFORMER “Queensryche”
INDEX 00 10:01:47
INDEX 01 10:04:27
TRACK 04 AUDIO
TITLE “No Sanctuary”
PERFORMER “Queensryche”
INDEX 00 13:22:55
INDEX 01 13:24:47
TRACK 05 AUDIO
TITLE “NM 156”
PERFORMER “Queensryche”
INDEX 00 19:29:47
INDEX 01 19:30:40
TRACK 06 AUDIO
TITLE “Take Hold Of The Flame”
PERFORMER “Queensryche”
INDEX 00 24:10:05
INDEX 01 24:12:40
TRACK 07 AUDIO
TITLE “Before The Storm”
PERFORMER “Queensryche”
INDEX 00 29:08:30
INDEX 01 29:10:05
TRACK 08 AUDIO
TITLE “Child Of Fire”
PERFORMER “Queensryche”
INDEX 00 33:31:32
INDEX 01 33:31:35
TRACK 09 AUDIO
TITLE “Roads To Madness”
PERFORMER “Queensryche”
INDEX 00 38:56:07
INDEX 01 38:58:55


Leave a Reply

Your email address will not be published. Required fields are marked *

Enter the text from the image below
 

This site uses Akismet to reduce spam. Learn how your comment data is processed.