Queensryche – The Verdict (Japanese Deluxe Edition)




No Cover available

Artist: Queensryche
Year: 2019
Genre: Metal
Notes: Discogs
Add. Notes: Japanese Deluxe Edition
Watch Songs on: YouTube
Cover incl.: Yes
Encoder: FLAC
Bitrate: ~1000 kBit/s (44.1 kHz/16 Bit/s)
Log & Cue incl.: Yes/Yes
Size: 666,5 MB
Password: “slam” (without ” “)


All Downloads/Hosters are compatible

Download 1
KatFile.com
Turbobit.net
Rapidgator.net
FileFactory.com
Download 2
KatFile.com
Turbobit.net
Rapidgator.net
FileFactory.com

Tracklist:

1 Blood Of The Levant 
2 Man The Machine 
3 Light-Years 
4 Inside Out 
5 Propaganda Fashion 
6 Dark Reverie 
7 Bent 
8 Inner Unrest 
9 Launder The Conscience 
10 Portrait 

Deluxe Edition Bonus CD
1 I Dream In Infrared (Acoustic) 
2 Open Road (Acoustic) 
3 46° North 
4 Mercury Rising 
5 Espiritu Muerto 
6 Queen Of The Reich 
7 En Force (Live 2012) 
8 Prophecy (Live 2012) 
9 Eyes Of A Stranger (Live 2012)

EAC-Log, CUE-Sheed & NFO:

Click to open spoiler
Exact Audio Copy V1.3 from 2. September 2016

EAC extraction logfile from 13. April 2019, 17:39

Queensyche / The Verdict (SICP 31236~7) (CD-1)

Used drive : ASUS DRW-24B1ST Adapter: 1 ID: 1

Read mode : Secure
Utilize accurate stream : Yes
Defeat audio cache : Yes
Make use of C2 pointers : No

Read offset correction : 6
Overread into Lead-In and Lead-Out : No
Fill up missing offset samples with silence : Yes
Delete leading and trailing silent blocks : No
Null samples used in CRC calculations : Yes
Used interface : Native Win32 interface for Win NT & 2000

Used output format : User Defined Encoder
Selected bitrate : 1024 kBit/s
Quality : High
Add ID3 tag : No
Command line compressor : E:\Install\All for Music\Lossless\FLAC_1.3.2\flac-1.3.2-git-20170314-x64-icl\flac.exe
Additional command line options : -V -8 -T “Genre=%genre%” -T “Artist=%artist%” -T “Title=%title%” -T “Album=%albumtitle%” -T “Date=%year%” -T “Tracknumber=%tracknr%” -T “Comment=%comment%” %source%

TOC of the extracted CD

Track | Start | Length | Start sector | End sector
———————————————————
1 | 0:00.00 | 3:27.10 | 0 | 15534
2 | 3:27.10 | 3:50.53 | 15535 | 32837
3 | 7:17.63 | 4:08.59 | 32838 | 51496
4 | 11:26.47 | 4:31.13 | 51497 | 71834
5 | 15:57.60 | 3:36.00 | 71835 | 88034
6 | 19:33.60 | 4:23.30 | 88035 | 107789
7 | 23:57.15 | 5:58.58 | 107790 | 134697
8 | 29:55.73 | 3:50.10 | 134698 | 151957
9 | 33:46.08 | 5:15.16 | 151958 | 175598
10 | 39:01.24 | 5:16.27 | 175599 | 199325

Range status and errors

Selected range

Filename E:\Ginger Devil\2019 – The Verdict (SICP 31236~7)\CD-1\Queensyche – The Verdict (SICP 31236~7) (CD-1).wav

Peak level 99.7 %
Extraction speed 5.1 X
Range quality 99.9 %
Test CRC 2E2F255D
Copy CRC 2E2F255D
Copy OK

No errors occurred

AccurateRip summary

Track 1 not present in database
Track 2 not present in database
Track 3 not present in database
Track 4 not present in database
Track 5 not present in database
Track 6 not present in database
Track 7 not present in database
Track 8 not present in database
Track 9 not present in database
Track 10 not present in database

None of the tracks are present in the AccurateRip database

End of status report

—- CUETools DB Plugin V2.1.6

[CTDB TOCID: 25RMXmSFqSF2a8X3CkvOnnj9MrA-] found
Submit result: 25RMXmSFqSF2a8X3CkvOnnj9MrA- has been confirmed
Track | CTDB Status
1 | (7/7) Accurately ripped
2 | (7/7) Accurately ripped
3 | (7/7) Accurately ripped
4 | (7/7) Accurately ripped
5 | (7/7) Accurately ripped
6 | (7/7) Accurately ripped
7 | (7/7) Accurately ripped
8 | (7/7) Accurately ripped
9 | (7/7) Accurately ripped
10 | (7/7) Accurately ripped

==== Log checksum 843824A56F1B3A95E52904CB6FD61201CBDB59D15B4D1C16DD4F645625C7592A ====

Exact Audio Copy V1.3 from 2. September 2016

EAC extraction logfile from 13. April 2019, 18:08

Queensryche / The Verdict (SICP 31236~7) (CD-2)

Used drive : ASUS DRW-24B1ST Adapter: 1 ID: 1

Read mode : Secure
Utilize accurate stream : Yes
Defeat audio cache : Yes
Make use of C2 pointers : No

Read offset correction : 6
Overread into Lead-In and Lead-Out : No
Fill up missing offset samples with silence : Yes
Delete leading and trailing silent blocks : No
Null samples used in CRC calculations : Yes
Used interface : Native Win32 interface for Win NT & 2000

Used output format : User Defined Encoder
Selected bitrate : 1024 kBit/s
Quality : High
Add ID3 tag : No
Command line compressor : E:\Install\All for Music\Lossless\FLAC_1.3.2\flac-1.3.2-git-20170314-x64-icl\flac.exe
Additional command line options : -V -8 -T “Genre=%genre%” -T “Artist=%artist%” -T “Title=%title%” -T “Album=%albumtitle%” -T “Date=%year%” -T “Tracknumber=%tracknr%” -T “Comment=%comment%” %source%

TOC of the extracted CD

Track | Start | Length | Start sector | End sector
———————————————————
1 | 0:00.00 | 3:58.59 | 0 | 17908
2 | 3:58.59 | 3:39.45 | 17909 | 34378
3 | 7:38.29 | 3:33.06 | 34379 | 50359
4 | 11:11.35 | 3:54.45 | 50360 | 67954
5 | 15:06.05 | 3:40.25 | 67955 | 84479
6 | 18:46.30 | 4:34.73 | 84480 | 105102
7 | 23:21.28 | 4:21.35 | 105103 | 124712
8 | 27:42.63 | 4:09.61 | 124713 | 143448
9 | 31:52.49 | 6:53.30 | 143449 | 174453

Range status and errors

Selected range

Filename E:\Ginger Devil\2019 – The Verdict (SICP 31236~7)\CD-2\Queensryche – The Verdict (SICP 31236~7) (CD-2).wav

Peak level 100.0 %
Extraction speed 2.7 X
Range quality 100.0 %
Test CRC F3C1D573
Copy CRC F3C1D573
Copy OK

No errors occurred

AccurateRip summary

Track 1 not present in database
Track 2 not present in database
Track 3 not present in database
Track 4 not present in database
Track 5 not present in database
Track 6 not present in database
Track 7 not present in database
Track 8 not present in database
Track 9 not present in database

None of the tracks are present in the AccurateRip database

End of status report

—- CUETools DB Plugin V2.1.6

[CTDB TOCID: BHHPq7QbIx3i5YFA.nXnbQLfTYg-] found
Submit result: BHHPq7QbIx3i5YFA.nXnbQLfTYg- has been confirmed
Track | CTDB Status
1 | (47/47) Accurately ripped
2 | (47/47) Accurately ripped
3 | (47/47) Accurately ripped
4 | (47/47) Accurately ripped
5 | (47/47) Accurately ripped
6 | (47/47) Accurately ripped
7 | (47/47) Accurately ripped
8 | (47/47) Accurately ripped
9 | (47/47) Accurately ripped

==== Log checksum BB8C60E1F861097518E5D2C2B2A6022B0898F2C9C6D52BA5987BA5D267DEA45A ====

REM GENRE “Heavy Metal”
REM DATE 2019
REM DISCID 990A610A
REM COMMENT “ExactAudioCopy v1.3”
PERFORMER “Queensyche”
TITLE “The Verdict (SICP 31236~7) (CD-1)”
REM COMPOSER “Queensyche”
FILE “Queensyche – The Verdict (SICP 31236~7) (CD-1).flac” WAVE
TRACK 01 AUDIO
TITLE “Blood Of The Levant”
PERFORMER “Queensyche”
REM COMPOSER “Queensyche”
INDEX 01 00:00:00
TRACK 02 AUDIO
TITLE “Man The Machine”
PERFORMER “Queensyche”
REM COMPOSER “Queensyche”
INDEX 01 03:27:10
TRACK 03 AUDIO
TITLE “Light-Years”
PERFORMER “Queensyche”
REM COMPOSER “Queensyche”
INDEX 01 07:17:63
TRACK 04 AUDIO
TITLE “Inside Out”
PERFORMER “Queensyche”
REM COMPOSER “Queensyche”
INDEX 01 11:26:47
TRACK 05 AUDIO
TITLE “Propaganda Fashion”
PERFORMER “Queensyche”
REM COMPOSER “Queensyche”
INDEX 01 15:57:60
TRACK 06 AUDIO
TITLE “Dark Reverie”
PERFORMER “Queensyche”
REM COMPOSER “Queensyche”
INDEX 01 19:33:60
TRACK 07 AUDIO
TITLE “Bent”
PERFORMER “Queensyche”
REM COMPOSER “Queensyche”
INDEX 01 23:57:15
TRACK 08 AUDIO
TITLE “Inner Unrest”
PERFORMER “Queensyche”
REM COMPOSER “Queensyche”
INDEX 01 29:55:73
TRACK 09 AUDIO
TITLE “Launder The Conscience”
PERFORMER “Queensyche”
REM COMPOSER “Queensyche”
INDEX 01 33:46:08
TRACK 10 AUDIO
TITLE “Portrait”
PERFORMER “Queensyche”
REM COMPOSER “Queensyche”
INDEX 01 39:01:24

REM GENRE “Heavy Metal”
REM DATE 2019
REM DISCID 67091609
REM COMMENT “ExactAudioCopy v1.3”
PERFORMER “Queensryche”
TITLE “The Verdict (SICP 31236~7) (CD-2)”
REM COMPOSER “Queensryche”
FILE “Queensryche – The Verdict (SICP 31236~7) (CD-2).flac” WAVE
TRACK 01 AUDIO
TITLE “I Dream In Infrared (Acoustic)”
PERFORMER “Queensryche”
REM COMPOSER “Queensryche”
INDEX 01 00:00:00
TRACK 02 AUDIO
TITLE “Open Road (Acoustic)”
PERFORMER “Queensryche”
REM COMPOSER “Queensryche”
INDEX 01 03:58:59
TRACK 03 AUDIO
TITLE “46 North”
PERFORMER “Queensryche”
REM COMPOSER “Queensryche”
ISRC US4E41524715
INDEX 01 07:38:29
TRACK 04 AUDIO
TITLE “Mercury Rising”
PERFORMER “Queensryche”
REM COMPOSER “Queensryche”
ISRC US4E41524713
INDEX 01 11:11:35
TRACK 05 AUDIO
TITLE “Espiritu Muerto”
PERFORMER “Queensryche”
REM COMPOSER “Queensryche”
ISRC US4E41524714
INDEX 01 15:06:05
TRACK 06 AUDIO
TITLE “Queen Of The Reich (Live 2012)”
PERFORMER “Queensryche”
REM COMPOSER “Queensryche”
ISRC US4E41304413
INDEX 01 18:46:30
TRACK 07 AUDIO
TITLE “En Force (Live 2012)”
PERFORMER “Queensryche”
REM COMPOSER “Queensryche”
ISRC US4E41304413
INDEX 01 23:21:28
TRACK 08 AUDIO
TITLE “Prophecy (Live 2012)”
PERFORMER “Queensryche”
REM COMPOSER “Queensryche”
ISRC US4E41304414
INDEX 01 27:42:63
TRACK 09 AUDIO
TITLE “Eyes Of A Stranger (Live 2012)”
PERFORMER “Queensryche”
REM COMPOSER “Queensryche”
ISRC US4E41304416
INDEX 01 31:52:49


0

Publication author

offline 8 hours

Chaos

3
Comments: 4Publics: 3424Registration: 02-02-2019
Spread the Download

Leave a Reply

Your email address will not be published. Required fields are marked *

Enter the text from the image below
 

This site uses Akismet to reduce spam. Learn how your comment data is processed.