Queensryche – Rage For Order




No Cover available

Artist: Queensryche
Year: 1986
Genre: Metal
Notes: Discogs
Add. Notes:
Watch Songs on: YouTube
Cover incl.: Yes
Encoder: FLAC
Bitrate: ~900 kBit/s (44.1 kHz/16 Bit/s)
Log & Cue incl.: Yes/Yes
Size: 303,7 MB
Password: “slam” (without ” “)


All Downloads/Hosters are compatible

Download 1
KatFile.com
Turbobit.net
FileFactory.com
Rapidgator.net
Download 2
KatFile.com
Turbobit.net
FileFactory.com
Rapidgator.net

Tracklist:

1 Walk In The Shadows 3:34
2 I Dream In Infra Red 4:18
3 The Whisper 3:36
4 Gonna Get Close To You 4:37
5 The Killing Words 3:56
6 Surgical Strike 3:22
7 Neue Regel 4:55
8 Chemical Youth (We Are Rebellion) 4:15
9 London 5:06
10 Screaming In Digital 3:36
11 I Will Remember 4:24

EAC-Log, CUE-Sheed & NFO:

Click to open spoiler
Exact Audio Copy V1.0 beta 3 from 29. August 2011

EAC extraction logfile from 10. May 2014, 20:33

Queensryche / Rage For Order [EMI, CDP 7 46330 2, USA]

Used drive : PIONEER DVD-RW DVR-112D Adapter: 1 ID: 0

Read mode : Secure
Utilize accurate stream : Yes
Defeat audio cache : Yes
Make use of C2 pointers : No

Read offset correction : 48
Overread into Lead-In and Lead-Out : No
Fill up missing offset samples with silence : Yes
Delete leading and trailing silent blocks : No
Null samples used in CRC calculations : Yes
Used interface : Installed external ASPI interface

Used output format : User Defined Encoder
Selected bitrate : 1024 kBit/s
Quality : High
Add ID3 tag : No
Command line compressor : C:\Program Files\Exact Audio Copy\FLAC\FLAC.EXE
Additional command line options : -V -8 -T “Date=%year%” -T “Genre=%genre%” %source%

TOC of the extracted CD

Track | Start | Length | Start sector | End sector
———————————————————
1 | 0:00.00 | 3:34.17 | 0 | 16066
2 | 3:34.17 | 4:18.38 | 16067 | 35454
3 | 7:52.55 | 3:36.37 | 35455 | 51691
4 | 11:29.17 | 4:37.65 | 51692 | 72531
5 | 16:07.07 | 3:56.53 | 72532 | 90284
6 | 20:03.60 | 3:23.60 | 90285 | 105569
7 | 23:27.45 | 4:55.35 | 105570 | 127729
8 | 28:23.05 | 4:15.30 | 127730 | 146884
9 | 32:38.35 | 5:06.07 | 146885 | 169841
10 | 37:44.42 | 3:37.23 | 169842 | 186139
11 | 41:21.65 | 4:25.27 | 186140 | 206041

Range status and errors

Selected range

Filename C:\CDRip by Deminbek\Queensryche – Rage For Order [EMI, CDP 7 46330 2, USA].wav

Peak level 100.0 %
Extraction speed 7.0 X
Range quality 99.9 %
Test CRC 23880CC2
Copy CRC 23880CC2
Copy OK

No errors occurred

AccurateRip summary

Track 1 accurately ripped (confidence 22) [3DF157E6] (AR v2)
Track 2 accurately ripped (confidence 23) [6F91723A] (AR v2)
Track 3 accurately ripped (confidence 23) [90586649] (AR v2)
Track 4 accurately ripped (confidence 22) [412EE908] (AR v2)
Track 5 accurately ripped (confidence 23) [F00541D4] (AR v2)
Track 6 accurately ripped (confidence 23) [138FFAA8] (AR v2)
Track 7 accurately ripped (confidence 23) [5F8C2180] (AR v2)
Track 8 accurately ripped (confidence 22) [573AAD52] (AR v2)
Track 9 accurately ripped (confidence 23) [8DFAF859] (AR v2)
Track 10 accurately ripped (confidence 23) [B3925CC0] (AR v2)
Track 11 accurately ripped (confidence 23) [E0BEA536] (AR v2)

All tracks accurately ripped

End of status report

—- CUETools DB Plugin V2.1.4

[CTDB TOCID: PDDa3mSsRhjibcvohT.e9i_sl6A-] found
Submit result: PDDa3mSsRhjibcvohT.e9i_sl6A- has been confirmed
Track | CTDB Status
1 | (20/21) Accurately ripped
2 | (20/21) Accurately ripped
3 | (20/21) Accurately ripped
4 | (20/21) Accurately ripped
5 | (20/21) Accurately ripped
6 | (20/21) Accurately ripped
7 | (20/21) Accurately ripped
8 | (20/21) Accurately ripped
9 | (20/21) Accurately ripped
10 | (20/21) Accurately ripped
11 | (20/21) Accurately ripped

==== Log checksum 2428274FD806EBD27EAC2699D04E7F6666C51982901F077684CA85EAC61BF86F ====

REM GENRE “Heavy Metal”
REM DATE 1986
REM DISCID 960ABB0B
REM COMMENT “ExactAudioCopy v1.0b3”
PERFORMER “Queensryche”
TITLE “Rage For Order (CDP 7 46330 2, U.S.A.)”
FILE “Queensryche – Rage For Order (CDP 7 46330 2, U.S.A.).flac” WAVE
TRACK 01 AUDIO
TITLE “Walk In The Shadows”
PERFORMER “Queensryche”
INDEX 01 00:00:00
TRACK 02 AUDIO
TITLE “I Dream In Infrared”
PERFORMER “Queensryche”
INDEX 01 03:34:17
TRACK 03 AUDIO
TITLE “The Whisper”
PERFORMER “Queensryche”
INDEX 01 07:52:55
TRACK 04 AUDIO
TITLE “Gonna Get Close To You”
PERFORMER “Queensryche”
INDEX 01 11:29:17
TRACK 05 AUDIO
TITLE “The Killing Words”
PERFORMER “Queensryche”
INDEX 01 16:07:07
TRACK 06 AUDIO
TITLE “Surgical Strike”
PERFORMER “Queensryche”
INDEX 01 20:03:60
TRACK 07 AUDIO
TITLE “Neue Regel”
PERFORMER “Queensryche”
INDEX 00 23:24:32
INDEX 01 23:27:45
TRACK 08 AUDIO
TITLE “Chemical Youth (We Are Rebellion)”
PERFORMER “Queensryche”
INDEX 01 28:23:05
TRACK 09 AUDIO
TITLE “London”
PERFORMER “Queensryche”
INDEX 01 32:38:35
TRACK 10 AUDIO
TITLE “Screaming In Digital”
PERFORMER “Queensryche”
INDEX 01 37:44:42
TRACK 11 AUDIO
TITLE “I Will Remember”
PERFORMER “Queensryche”
INDEX 01 41:21:65


0

Publication author

offline 9 hours

Chaos

3
Comments: 4Publics: 3360Registration: 02-02-2019
Spread the Download

Leave a Reply

Your email address will not be published. Required fields are marked *

Enter the text from the image below
 

This site uses Akismet to reduce spam. Learn how your comment data is processed.