Queensryche – Q2k




No Cover available

Artist: Queensryche
Year: 1999
Genre: Metal
Notes: Discogs
Add. Notes:
Watch Songs on: YouTube
Cover incl.: Yes
Encoder: FLAC
Bitrate: ~1000 kBit/s (44.1 kHz/16 Bit/s)
Log & Cue incl.: Yes/Yes
Size: 373,2 MB
Password: “slam” (without ” “)


All Downloads/Hosters are compatible

Download 1
KatFile.com
Turbobit.net
Rapidgator.net
FileFactory.com
Download 2
KatFile.com
Turbobit.net
Rapidgator.net
FileFactory.com

Tracklist:

1 Falling Down 4:29
2 Sacred Ground 4:12
3 One Life 4:49
4 When The Rain Comes... 5:06
5 How Could I? 3:44
6 Beside You 5:14
7 Liquid Sky 4:53
8 Breakdown 4:11
9 Burning Man 3:42
10 Wot Kinda Man 3:15
11 The Right Side Of My Mind 5:51

EAC-Log, CUE-Sheed & NFO:

Click to open spoiler
REM GENRE “Heavy Metal”
REM DATE 1999
REM DISCID 790B970B
REM COMMENT “ExactAudioCopy v1.1”
CATALOG 0075678322525
PERFORMER “Queensryche”
TITLE “Q2k (7567-83225-2)”
FILE “Queensryche – Q2k (7567-83225-2).flac” WAVE
TRACK 01 AUDIO
TITLE “Falling Down”
PERFORMER “Queensryche”
ISRC USAT29901345
INDEX 01 00:00:00
TRACK 02 AUDIO
TITLE “Sacred Ground”
PERFORMER “Queensryche”
ISRC USAT29901346
INDEX 00 04:28:15
INDEX 01 04:28:62
TRACK 03 AUDIO
TITLE “One Life”
PERFORMER “Queensryche”
ISRC USAT29901347
INDEX 00 08:40:32
INDEX 01 08:41:15
TRACK 04 AUDIO
TITLE “When The Rain Comes…”
PERFORMER “Queensryche”
ISRC USAT29901348
INDEX 00 13:29:00
INDEX 01 13:30:17
TRACK 05 AUDIO
TITLE “How Could I?”
PERFORMER “Queensryche”
ISRC USAT29901348
INDEX 01 18:35:65
TRACK 06 AUDIO
TITLE “Beside You”
PERFORMER “Queensryche”
ISRC USAT29901350
INDEX 00 22:18:35
INDEX 01 22:19:70
TRACK 07 AUDIO
TITLE “Liquid Sky”
PERFORMER “Queensryche”
ISRC USAT29901351
INDEX 00 27:32:45
INDEX 01 27:33:65
TRACK 08 AUDIO
TITLE “Breakdown”
PERFORMER “Queensryche”
ISRC USAT29901352
INDEX 00 32:25:57
INDEX 01 32:27:07
TRACK 09 AUDIO
TITLE “Burning Man”
PERFORMER “Queensryche”
ISRC USAT29901353
INDEX 00 36:37:30
INDEX 01 36:38:25
TRACK 10 AUDIO
TITLE “Wot Kinda Man”
PERFORMER “Queensryche”
ISRC USAT29901355
INDEX 00 40:19:00
INDEX 01 40:20:37
TRACK 11 AUDIO
TITLE “The Right Side Of My Mind”
PERFORMER “Queensryche”
ISRC USAT29901356
INDEX 00 43:34:30
INDEX 01 43:35:47
Exact Audio Copy V1.1 from 23. June 2015

EAC extraction logfile from 11. March 2016, 19:50

Queensryche / Q2k

Used drive : TSSTcorpDVD-ROM SH-118CB Adapter: 1 ID: 0

Read mode : Secure
Utilize accurate stream : Yes
Defeat audio cache : Yes
Make use of C2 pointers : No

Read offset correction : 6
Overread into Lead-In and Lead-Out : No
Fill up missing offset samples with silence : Yes
Delete leading and trailing silent blocks : No
Null samples used in CRC calculations : Yes
Used interface : Native Win32 interface for Win NT & 2000

Used output format : User Defined Encoder
Selected bitrate : 1024 kBit/s
Quality : High
Add ID3 tag : No
Command line compressor : C:\Program Files (x86)\Exact Audio Copy\Flac\flac.exe
Additional command line options : -V -8 -T “Date=%year%” -T “Genre=%genre%” %source%

TOC of the extracted CD

Track | Start | Length | Start sector | End sector
———————————————————
1 | 0:00.00 | 4:28.62 | 0 | 20161
2 | 4:28.62 | 4:12.28 | 20162 | 39089
3 | 8:41.15 | 4:49.02 | 39090 | 60766
4 | 13:30.17 | 5:05.48 | 60767 | 83689
5 | 18:35.65 | 3:44.05 | 83690 | 100494
6 | 22:19.70 | 5:13.70 | 100495 | 124039
7 | 27:33.65 | 4:53.17 | 124040 | 146031
8 | 32:27.07 | 4:11.18 | 146032 | 164874
9 | 36:38.25 | 3:42.12 | 164875 | 181536
10 | 40:20.37 | 3:15.10 | 181537 | 196171
11 | 43:35.47 | 5:51.35 | 196172 | 222531

Range status and errors

Selected range

Filename E:\Torrent\Queensryche\1999 – Q2k (Atlantic, 7567-83225-2, Germany)\Queensryche – Q2k.wav

Peak level 98.5 %
Extraction speed 0.9 X
Range quality 99.9 %
Test CRC F30D374C
Copy CRC F30D374C
Copy OK

No errors occurred

AccurateRip summary

Track 1 accurately ripped (confidence 32) [CC8BE9C5] (AR v2)
Track 2 accurately ripped (confidence 32) [E1B89ED6] (AR v2)
Track 3 accurately ripped (confidence 32) [52250F51] (AR v2)
Track 4 accurately ripped (confidence 32) [DC50ECA0] (AR v2)
Track 5 accurately ripped (confidence 32) [14B1BE77] (AR v2)
Track 6 accurately ripped (confidence 32) [F8301166] (AR v2)
Track 7 accurately ripped (confidence 32) [4A34B5D0] (AR v2)
Track 8 accurately ripped (confidence 32) [3138C95B] (AR v2)
Track 9 accurately ripped (confidence 32) [86F479B8] (AR v2)
Track 10 accurately ripped (confidence 32) [816B1CBC] (AR v2)
Track 11 accurately ripped (confidence 32) [AB8399FE] (AR v2)

All tracks accurately ripped

End of status report

—- CUETools DB Plugin V2.1.6

[CTDB TOCID: ErnD9N9TBW5KOSrWQThLVMpEVp8-] found
Submit result: ErnD9N9TBW5KOSrWQThLVMpEVp8- has been confirmed
Track | CTDB Status
1 | (66/66) Accurately ripped
2 | (66/66) Accurately ripped
3 | (66/66) Accurately ripped
4 | (64/66) Accurately ripped
5 | (64/66) Accurately ripped
6 | (65/66) Accurately ripped
7 | (65/66) Accurately ripped
8 | (65/66) Accurately ripped
9 | (65/66) Accurately ripped
10 | (66/66) Accurately ripped
11 | (66/66) Accurately ripped

==== Log checksum 1B1518E1AA3157F5B58681A18D5776F0D0F72FBA79EF64F3B17C7758F87A546C ====


0

Publication author

offline 7 days

Chaos

3
Comments: 4Publics: 3565Registration: 02-02-2019
Spread the Download

Leave a Reply

Your email address will not be published. Required fields are marked *

Enter the text from the image below
 

This site uses Akismet to reduce spam. Learn how your comment data is processed.