Queensryche – Q2k (Japanese Edition)




No Cover available

Artist: Queensryche
Year: 1999
Genre: Metal
Notes: Discogs
Add. Notes: Japanese Edition
Watch Songs on: YouTube
Cover incl.: Yes
Encoder: FLAC
Bitrate: ~1000 kBit/s (44.1 kHz/16 Bit/s)
Log & Cue incl.: Yes/Yes
Size: 426,5 MB
Password: “slam” (without ” “)


All Downloads/Hosters are compatible

Download 1
KatFile.com
Turbobit.net
Rapidgator.net
FileFactory.com
Download 2
KatFile.com
Turbobit.net
Rapidgator.net
FileFactory.com

Tracklist:

1 Falling Down 4:29
2 Sacred Ground 4:12
3 One Life 4:49
4 When The Rain Comes... 5:06
5 How Could I? 3:44
6 Beside You 5:14
7 Liquid Sky 4:53
8 Breakdown 4:11
9 Burning Man 3:42
10 Wot Kinda Man 3:15
11 The Right Side Of My Mind 5:52

Japan Bonus Tracks:
12 Sacred Ground (Live) 4:24

EAC-Log, CUE-Sheed & NFO:

Click to open spoiler
Exact Audio Copy V0.99 prebeta 5 from 4. May 2009

Archivo Log de extracciones desde 23. Febrero 2012, 15:33

Queensryche / Q2K – Japan (AMCY-7102)

Usar unidad : HL-DT-STDVDRAM GH22NS70 Adapter: 0 ID: 0

Modo de Lectura : Seguro
Utilizar Corriente Exacta : Sí
Descartar Audio caché : Sí
Utilizar los punteros C2 : No

Corrección de Desplazamiento de Lectura : 667
Sobreleer tanto en Lead-In como en Lead-Out : No
Rellenar las muestras faltantes con silencios : Sí
Eliminar silencios inicial y final : No
Se han usado muestras nulas en los cálculos CRC : Sí
Interfaz usada : Interfaz propio de Win32 para Windowns NT y 2000

Formato de Salida utilizado : Compresor sin pérdida Monkey’s Audio
Bitrate seleccionado : High Lossless Compression
Calidad : Alta
Añadir Etiqueta ID3 : Sí
Compresor de linea de comandos : C:\Program Files (x86)\Exact Audio Copy\MAC.exe

TOC del CD extraido

Pista | Inicio | Duración | Sector inicial | Sector final
————————————————————-
1 | 0:00.00 | 4:29.00 | 0 | 20174
2 | 4:29.00 | 4:12.27 | 20175 | 39101
3 | 8:41.27 | 4:49.03 | 39102 | 60779
4 | 13:30.30 | 5:05.47 | 60780 | 83701
5 | 18:36.02 | 3:44.05 | 83702 | 100506
6 | 22:20.07 | 5:13.70 | 100507 | 124051
7 | 27:34.02 | 4:53.18 | 124052 | 146044
8 | 32:27.20 | 4:11.17 | 146045 | 164886
9 | 36:38.37 | 3:42.13 | 164887 | 181549
10 | 40:20.50 | 3:15.10 | 181550 | 196184
11 | 43:35.60 | 5:54.22 | 196185 | 222756
12 | 49:30.07 | 4:23.63 | 222757 | 242544

Gama de estados y errores

Seleccionar gama

Nombre de Archivo E:\Música\EAC\Queesnryche\Q2K\Queensryche – Q2K – Japan (AMCY-7102).wav

Nivel Pico 98.5 %
Gama de Calidad 100.0 %
Test CRC 5B953523
Copiar CRC 5B953523
Copia OK

Sin Errores

Resumen AccurateRip

Pista 1 extraido de modo preciso (nivel de confianza 3) [2DD09383]
Pista 2 extraido de modo preciso (nivel de confianza 3) [968E4011]
Pista 3 extraido de modo preciso (nivel de confianza 3) [A095190A]
Pista 4 extraido de modo preciso (nivel de confianza 3) [C8EB3FB3]
Pista 5 extraido de modo preciso (nivel de confianza 3) [1A55F70E]
Pista 6 extraido de modo preciso (nivel de confianza 3) [B1FFA199]
Pista 7 extraido de modo preciso (nivel de confianza 3) [7D169D5A]
Pista 8 extraido de modo preciso (nivel de confianza 3) [16EE4137]
Pista 9 extraido de modo preciso (nivel de confianza 3) [71FBC052]
Pista 10 extraido de modo preciso (nivel de confianza 3) [357507F1]
Pista 11 extraido de modo preciso (nivel de confianza 3) [86CFDED8]
Pista 12 extraido de modo preciso (nivel de confianza 3) [4ADED7E2]

Todas las pistas extraidas de modo preciso

Final del Informe

REM GENRE “Heavy Metal”
REM DATE 1999
REM DISCID 910CA10C
REM COMMENT “ExactAudioCopy v0.99pb5”
PERFORMER “Queensryche”
TITLE “Q2k (AMCY-7102)”
FILE “Queensryche – Q2k (AMCY-7102).flac” WAVE
TRACK 01 AUDIO
TITLE “Falling Down”
PERFORMER “Queensryche”
INDEX 01 00:00:00
TRACK 02 AUDIO
TITLE “Sacred Ground”
PERFORMER “Queensryche”
INDEX 00 04:28:35
INDEX 01 04:29:00
TRACK 03 AUDIO
TITLE “One Life”
PERFORMER “Queensryche”
INDEX 00 08:40:52
INDEX 01 08:41:27
TRACK 04 AUDIO
TITLE “When The Rain Comes…”
PERFORMER “Queensryche”
INDEX 00 13:29:22
INDEX 01 13:30:30
TRACK 05 AUDIO
TITLE “How Could I?”
PERFORMER “Queensryche”
INDEX 01 18:36:02
TRACK 06 AUDIO
TITLE “Beside You”
PERFORMER “Queensryche”
INDEX 00 22:18:57
INDEX 01 22:20:07
TRACK 07 AUDIO
TITLE “Liquid Sky”
PERFORMER “Queensryche”
INDEX 00 27:32:67
INDEX 01 27:34:02
TRACK 08 AUDIO
TITLE “Breakdown”
PERFORMER “Queensryche”
INDEX 00 32:26:05
INDEX 01 32:27:20
TRACK 09 AUDIO
TITLE “Burning Man”
PERFORMER “Queensryche”
INDEX 00 36:37:52
INDEX 01 36:38:37
TRACK 10 AUDIO
TITLE “Wot Kinda Man”
PERFORMER “Queensryche”
INDEX 00 40:19:22
INDEX 01 40:20:50
TRACK 11 AUDIO
TITLE “The Right Side Of My Mind”
PERFORMER “Queensryche”
INDEX 00 43:34:55
INDEX 01 43:35:60
TRACK 12 AUDIO
TITLE “Sacred Ground (Live) (Bonus track)”
PERFORMER “Queensryche”
INDEX 00 49:27:32
INDEX 01 49:30:07


0

Publication author

offline 8 hours

Chaos

3
Comments: 4Publics: 3424Registration: 02-02-2019
Spread the Download

Leave a Reply

Your email address will not be published. Required fields are marked *

Enter the text from the image below
 

This site uses Akismet to reduce spam. Learn how your comment data is processed.