Queensryche – Promised Land (Japanese Edition)




No Cover available

Artist: Queensryche
Year: 1994
Genre: Metal
Notes: Discogs
Add. Notes: Japanese Edition
Watch Songs on: YouTube
Cover incl.: Yes
Encoder: FLAC
Bitrate: ~1000 kBit/s (44.1 kHz/16 Bit/s)
Log & Cue incl.: Yes/Yes
Size: 543,24 MB
Password: “slam” (without ” “)


All Downloads/Hosters are compatible

Download 1
KatFile.com
Turbobit.net
Rapidgator.net
FileFactory.com
Download 2
KatFile.com
Turbobit.net
Rapidgator.net
FileFactory.com

Tracklist:

1 9:28 a.m. 1:44
2 I Am I 3:56
3 Damaged 3:57
4 Out Of Mind 4:35
5 Bridge 3:29
6 Promised Land 7:57
7 Disconnected 4:45
8 Lady Jane 4:12
9 My Global Mind 4:21
10 One More Time 4:17
11 Someone Else? 4:44
12 Someone Else? (With Full Band) 7:11
13 Real World 4:22

EAC-Log, CUE-Sheed & NFO:

Click to open spoiler
Exact Audio Copy V0.99 prebeta 5 from 4. May 2009

Archivo Log de extracciones desde 27. Febrero 2012, 12:25

Queensryche / Promised Land – Japan (TOCP-8396)

Usar unidad : HL-DT-STDVDRAM GH22NS70 Adapter: 0 ID: 0

Modo de Lectura : Seguro
Utilizar Corriente Exacta : Sí
Descartar Audio caché : Sí
Utilizar los punteros C2 : No

Corrección de Desplazamiento de Lectura : 667
Sobreleer tanto en Lead-In como en Lead-Out : No
Rellenar las muestras faltantes con silencios : Sí
Eliminar silencios inicial y final : No
Se han usado muestras nulas en los cálculos CRC : Sí
Interfaz usada : Interfaz propio de Win32 para Windowns NT y 2000

Formato de Salida utilizado : Compresor sin pérdida Monkey’s Audio
Bitrate seleccionado : High Lossless Compression
Calidad : Alta
Añadir Etiqueta ID3 : Sí
Compresor de linea de comandos : C:\Program Files (x86)\Exact Audio Copy\MAC.exe

TOC del CD extraido

Pista | Inicio | Duración | Sector inicial | Sector final
————————————————————-
1 | 0:00.00 | 1:44.20 | 0 | 7819
2 | 1:44.20 | 3:56.62 | 7820 | 25581
3 | 5:41.07 | 3:58.00 | 25582 | 43431
4 | 9:39.07 | 4:35.55 | 43432 | 64111
5 | 14:14.62 | 3:29.63 | 64112 | 79849
6 | 17:44.50 | 7:57.72 | 79850 | 115696
7 | 25:42.47 | 4:45.03 | 115697 | 137074
8 | 30:27.50 | 4:14.60 | 137075 | 156184
9 | 34:42.35 | 4:21.27 | 156185 | 175786
10 | 39:03.62 | 4:18.58 | 175787 | 195194
11 | 43:22.45 | 4:44.42 | 195195 | 216536
12 | 48:07.12 | 7:11.15 | 216537 | 248876
13 | 55:18.27 | 4:22.10 | 248877 | 268536

Gama de estados y errores

Seleccionar gama

Nombre de Archivo E:\Música\EAC\Queesnryche\Promise Land\Queensryche – Promised Land – Japan (TOCP-8396).wav

Nivel Pico 99.0 %
Gama de Calidad 100.0 %
Test CRC DF97A524
Copiar CRC DF97A524
Copia OK

Sin Errores

Resumen AccurateRip

Pista 1 extraido de modo preciso (nivel de confianza 9) [33D0F439]
Pista 2 extraido de modo preciso (nivel de confianza 9) [3C4C5E2F]
Pista 3 extraido de modo preciso (nivel de confianza 9) [56EDF56C]
Pista 4 extraido de modo preciso (nivel de confianza 9) [C0CFC97E]
Pista 5 extraido de modo preciso (nivel de confianza 9) [136E845C]
Pista 6 extraido de modo preciso (nivel de confianza 9) [B8BA8FB6]
Pista 7 extraido de modo preciso (nivel de confianza 9) [F5B3931F]
Pista 8 extraido de modo preciso (nivel de confianza 9) [A3200942]
Pista 9 extraido de modo preciso (nivel de confianza 9) [EC1F3949]
Pista 10 extraido de modo preciso (nivel de confianza 9) [A680EC20]
Pista 11 extraido de modo preciso (nivel de confianza 9) [3A0A958E]
Pista 12 extraido de modo preciso (nivel de confianza 9) [1EEBB01B]
Pista 13 extraido de modo preciso (nivel de confianza 9) [200D7AB4]

Todas las pistas extraidas de modo preciso

Final del Informe

REM GENRE Heavy Metal
REM DATE 1994
REM COMMENT 1994 Toshiba-EMI Japan, TOCP-8396
PERFORMER “Queensryche”
TITLE “Promised Land (TOCP-8396)”
FILE “Queensryche – Promised Land (TOCP-8396).flac” WAVE
TRACK 01 AUDIO
TITLE “9:28 a.m.”
PERFORMER “Queensryche”
INDEX 01 00:00:00
TRACK 02 AUDIO
TITLE “I Am I”
PERFORMER “Queensryche”
INDEX 01 01:44:20
TRACK 03 AUDIO
TITLE “Damaged”
PERFORMER “Queensryche”
INDEX 01 05:41:07
TRACK 04 AUDIO
TITLE “Out Of Mind”
PERFORMER “Queensryche”
INDEX 00 09:38:50
INDEX 01 09:39:07
TRACK 05 AUDIO
TITLE “Bridge”
PERFORMER “Queensryche”
INDEX 00 14:14:25
INDEX 01 14:14:62
TRACK 06 AUDIO
TITLE “Promised Land”
PERFORMER “Queensryche”
INDEX 01 17:44:50
TRACK 07 AUDIO
TITLE “Disconnected”
PERFORMER “Queensryche”
INDEX 01 25:42:47
TRACK 08 AUDIO
TITLE “Lady Jane”
PERFORMER “Queensryche”
INDEX 01 30:27:50
TRACK 09 AUDIO
TITLE “My Global Mind”
PERFORMER “Queensryche”
INDEX 00 34:40:47
INDEX 01 34:42:35
TRACK 10 AUDIO
TITLE “One More Time”
PERFORMER “Queensryche”
INDEX 01 39:03:62
TRACK 11 AUDIO
TITLE “Someone Else?”
PERFORMER “Queensryche”
INDEX 00 43:21:17
INDEX 01 43:22:45
TRACK 12 AUDIO
TITLE “Someone Else? (With full band) (Bonus track)”
PERFORMER “Queensryche”
INDEX 00 48:06:45
INDEX 01 48:07:12
TRACK 13 AUDIO
TITLE “Real World (Bonus track)”
PERFORMER “Queensryche”
INDEX 01 55:18:27


0

Publication author

offline 14 hours

Chaos

3
Comments: 4Publics: 3418Registration: 02-02-2019
Spread the Download

Leave a Reply

Your email address will not be published. Required fields are marked *

Enter the text from the image below
 

This site uses Akismet to reduce spam. Learn how your comment data is processed.