Queensryche – Operation Mindcrime




No Cover available

Artist: Queensryche
Year: 1988
Genre: Metal
Notes: Discogs
Add. Notes:
Watch Songs on: YouTube
Cover incl.: Yes
Encoder: FLAC
Bitrate: ~800 kBit/s (44.1 kHz/16 Bit/s)
Log & Cue incl.: Yes/Yes
Size: 378,4 MB
Password: “slam” (without ” “)


All Downloads/Hosters are compatible

Download 1
KatFile.com
Turbobit.net
FileFactory.com
Rapidgator.net
Download 2
KatFile.com
Turbobit.net
FileFactory.com
Rapidgator.net

Tracklist:

1 I Remember Now 1:17
2 Anarchy-X 1:27
3 Revolution Calling 4:42
4 Operation: Mindcrime 4:43
5 Speak 3:42
6 Spreading The Disease 4:07
7 The Mission 5:46
8 Suite Sister Mary 10:41
9 The Needle Lies 3:08
10 Electric Requiem 1:22
11 Breaking The Silence 4:34
12 I Don't Believe In Love 4:23
13 Waiting For 22 1:05
14 My Empty Room 1:28
15 Eyes Of A Stranger 6:39

EAC-Log, CUE-Sheed & NFO:

Click to open spoiler
Exact Audio Copy V1.3 from 2. September 2016

EAC extraction logfile from 28. August 2017, 20:18

Queensryche / Operation: Mindcrime

Used drive : TSSTcorpDVD-ROM SH-118CB Adapter: 1 ID: 0

Read mode : Secure
Utilize accurate stream : Yes
Defeat audio cache : Yes
Make use of C2 pointers : No

Read offset correction : 6
Overread into Lead-In and Lead-Out : No
Fill up missing offset samples with silence : Yes
Delete leading and trailing silent blocks : No
Null samples used in CRC calculations : Yes
Used interface : Native Win32 interface for Win NT & 2000

Used output format : User Defined Encoder
Selected bitrate : 1024 kBit/s
Quality : High
Add ID3 tag : No
Command line compressor : C:\Program Files (x86)\Exact Audio Copy\Flac\flac.exe
Additional command line options : -V -8 -T “Genre=%genre%” -T “Artist=%artist%” -T “Title=%title%” -T “Album=%albumtitle%” -T “Date=%year%” -T “Tracknumber=%tracknr%” -T “Comment=%comment%” %source%

TOC of the extracted CD

Track | Start | Length | Start sector | End sector
———————————————————
1 | 0:00.32 | 1:17.65 | 32 | 5871
2 | 1:18.22 | 1:27.45 | 5872 | 12441
3 | 2:45.67 | 4:39.58 | 12442 | 33424
4 | 7:25.50 | 4:45.20 | 33425 | 54819
5 | 12:10.70 | 3:42.50 | 54820 | 71519
6 | 15:53.45 | 4:07.10 | 71520 | 90054
7 | 20:00.55 | 5:47.65 | 90055 | 116144
8 | 25:48.45 | 10:39.65 | 116145 | 164134
9 | 36:28.35 | 3:08.62 | 164135 | 178296
10 | 39:37.22 | 1:22.58 | 178297 | 184504
11 | 41:00.05 | 4:34.22 | 184505 | 205076
12 | 45:34.27 | 4:23.45 | 205077 | 224846
13 | 49:57.72 | 1:05.63 | 224847 | 229784
14 | 51:03.60 | 1:32.12 | 229785 | 236696
15 | 52:35.72 | 6:38.10 | 236697 | 266556

Range status and errors

Selected range

Filename E:\Torrent\Ginger Devil\Queensryche – Operation Mindcrime (EMI-Manhattan, CDP-7-48640-2, U.S.A.)\Queensryche – Operation Mindcrime.wav

Peak level 97.0 %
Extraction speed 1.0 X
Range quality 100.0 %
Test CRC 8BACE210
Copy CRC 8BACE210
Copy OK

No errors occurred

AccurateRip summary

Track 1 accurately ripped (confidence 90) [9183B55B] (AR v2)
Track 2 accurately ripped (confidence 87) [87AA3FEE] (AR v2)
Track 3 accurately ripped (confidence 91) [50D046C6] (AR v2)
Track 4 accurately ripped (confidence 91) [13A1E034] (AR v2)
Track 5 accurately ripped (confidence 90) [EDD1C5E1] (AR v2)
Track 6 accurately ripped (confidence 90) [C3F96665] (AR v2)
Track 7 accurately ripped (confidence 91) [EE95001B] (AR v2)
Track 8 accurately ripped (confidence 90) [B2518AAA] (AR v2)
Track 9 accurately ripped (confidence 90) [7ED6AF03] (AR v2)
Track 10 accurately ripped (confidence 89) [51252693] (AR v2)
Track 11 accurately ripped (confidence 90) [7CAD0AFB] (AR v2)
Track 12 accurately ripped (confidence 90) [AEA97BBA] (AR v2)
Track 13 accurately ripped (confidence 90) [13302A30] (AR v2)
Track 14 accurately ripped (confidence 88) [C8018B5C] (AR v2)
Track 15 accurately ripped (confidence 87) [52338930] (AR v2)

All tracks accurately ripped

End of status report

—- CUETools DB Plugin V2.1.6

[CTDB TOCID: x2x51.3IHTeW4bliocY6xa_HHbE-] found
Submit result: x2x51.3IHTeW4bliocY6xa_HHbE- has been confirmed
Track | CTDB Status
1 | (290/572) Accurately ripped
2 | (292/572) Accurately ripped
3 | (291/572) Accurately ripped
4 | (294/572) Accurately ripped
5 | (289/572) Accurately ripped
6 | (290/572) Accurately ripped
7 | (237/572) Accurately ripped, or (44/572) differs in 1 samples @04:30:12
8 | (283/572) Accurately ripped
9 | (295/572) Accurately ripped
10 | (295/572) Accurately ripped
11 | (291/572) Accurately ripped
12 | (292/572) Accurately ripped
13 | (295/572) Accurately ripped
14 | (294/572) Accurately ripped
15 | (197/572) Accurately ripped, or (55/572) differs in 2106 samples @06:38:01-06:38:29, or (3/572) differs in 2106 samples @06:38:01-06:38:36

==== Log checksum D8FA2B1A583C584D3750264A3A67D6B0634D34098EAA7421813D89FA8473BF0F ====

REM GENRE “Heavy Metal”
REM DATE 1988
REM DISCID D20DE20F
REM COMMENT “ExactAudioCopy v1.3”
CATALOG 0000000000000
PERFORMER “Queensryche”
TITLE “Operation: Mindcrime (CDP-7-48640-2)”
REM COMPOSER “Queensryche”
FILE “Queensryche – Operation Mindcrime (CDP-7-48640-2).flac” WAVE
TRACK 01 AUDIO
TITLE “I Remember Now”
PERFORMER “Queensryche”
REM COMPOSER “Queensryche”
INDEX 00 00:00:00
INDEX 01 00:00:32
TRACK 02 AUDIO
TITLE “Anarchy-X”
PERFORMER “Queensryche”
REM COMPOSER “Queensryche”
INDEX 01 01:18:22
TRACK 03 AUDIO
TITLE “Revolution Calling”
PERFORMER “Queensryche”
REM COMPOSER “Queensryche”
INDEX 01 02:45:67
TRACK 04 AUDIO
TITLE “Operation: Mindcrime”
PERFORMER “Queensryche”
REM COMPOSER “Queensryche”
INDEX 01 07:25:50
TRACK 05 AUDIO
TITLE “Speak”
PERFORMER “Queensryche”
REM COMPOSER “Queensryche”
INDEX 00 12:03:72
INDEX 01 12:10:70
TRACK 06 AUDIO
TITLE “Spreading The Disease”
PERFORMER “Queensryche”
REM COMPOSER “Queensryche”
INDEX 00 15:53:32
INDEX 01 15:53:45
TRACK 07 AUDIO
TITLE “The Mission”
PERFORMER “Queensryche”
REM COMPOSER “Queensryche”
INDEX 00 20:00:42
INDEX 01 20:00:55
TRACK 08 AUDIO
TITLE “Suite Sister Mary”
PERFORMER “Queensryche”
REM COMPOSER “Queensryche”
INDEX 00 25:48:32
INDEX 01 25:48:45
TRACK 09 AUDIO
TITLE “The Needle Lies”
PERFORMER “Queensryche”
REM COMPOSER “Queensryche”
INDEX 00 36:28:22
INDEX 01 36:28:35
TRACK 10 AUDIO
TITLE “Electric Requiem”
PERFORMER “Queensryche”
REM COMPOSER “Queensryche”
INDEX 00 39:37:10
INDEX 01 39:37:22
TRACK 11 AUDIO
TITLE “Breaking The Silence”
PERFORMER “Queensryche”
REM COMPOSER “Queensryche”
INDEX 00 40:59:67
INDEX 01 41:00:05
TRACK 12 AUDIO
TITLE “I Don’t Believe In Love”
PERFORMER “Queensryche”
REM COMPOSER “Queensryche”
INDEX 00 45:34:15
INDEX 01 45:34:27
TRACK 13 AUDIO
TITLE “Waiting For 22”
PERFORMER “Queensryche”
REM COMPOSER “Queensryche”
INDEX 00 49:57:60
INDEX 01 49:57:72
TRACK 14 AUDIO
TITLE “My Empty Room”
PERFORMER “Queensryche”
REM COMPOSER “Queensryche”
INDEX 00 51:03:47
INDEX 01 51:03:60
TRACK 15 AUDIO
TITLE “Eyes Of A Stranger”
PERFORMER “Queensryche”
REM COMPOSER “Queensryche”
INDEX 00 52:35:60
INDEX 01 52:35:72


Leave a Reply

Your email address will not be published. Required fields are marked *

Enter the text from the image below
 

This site uses Akismet to reduce spam. Learn how your comment data is processed.