Queensryche – Operation: Mindcrime (Japanese Edition)




No Cover available

Artist: Queensryche
Year: 1988
Genre: Metal
Notes: Discogs
Add. Notes: Japanese Edition
Watch Songs on: YouTube
Cover incl.: Yes
Encoder: FLAC
Bitrate: ~800 kBit/s (44.1 kHz/16 Bit/s)
Log & Cue incl.: Yes/Yes
Size: 408,9 MB
Password: “slam” (without ” “)


All Downloads/Hosters are compatible

Download 1
KatFile.com
Turbobit.net
Rapidgator.net
FileFactory.com
Download 2
KatFile.com
Turbobit.net
Rapidgator.net
FileFactory.com

Tracklist:

1 I Remember Now 1:18
2 Anarchy-X 1:27
3 Revolution Calling 4:39
4 Operation: Mindcrime 4:37
5 Speak 3:42
6 Spreading The Disease 4:07
7 The Mission 5:47
8 Suite Sister Mary 10:39
9 The Needle Lies 3:09
10 Electric Requiem 1:22
11 Breaking The Silence 4:34
12 I Don't Believe In Love 4:23
13 Waiting For 22 1:05
14 My Empty Room 1:32
15 Eyes Of A Stranger 6:38

EAC-Log, CUE-Sheed & NFO:

Click to open spoiler
Exact Audio Copy V1.0 beta 3 from 29. August 2011

EAC extraction logfile from 22. August 2013, 21:37

Queensryche / Operation: Mindcrime [Toshiba-EMI, CP32-5618, Japan]

Used drive : PIONEER DVD-RW DVR-112D Adapter: 0 ID: 0

Read mode : Secure
Utilize accurate stream : Yes
Defeat audio cache : Yes
Make use of C2 pointers : No

Read offset correction : 48
Overread into Lead-In and Lead-Out : No
Fill up missing offset samples with silence : Yes
Delete leading and trailing silent blocks : No
Null samples used in CRC calculations : Yes
Used interface : Installed external ASPI interface

Used output format : User Defined Encoder
Selected bitrate : 1024 kBit/s
Quality : High
Add ID3 tag : No
Command line compressor : C:\Program Files\Exact Audio Copy\FLAC\FLAC.EXE
Additional command line options : -V -8 -T “Date=%year%” -T “Genre=%genre%” %source%

TOC of the extracted CD

Track | Start | Length | Start sector | End sector
———————————————————
1 | 0:00.00 | 1:18.05 | 0 | 5854
2 | 1:18.05 | 1:27.42 | 5855 | 12421
3 | 2:45.47 | 4:39.60 | 12422 | 33406
4 | 7:25.32 | 4:39.25 | 33407 | 54356
5 | 12:04.57 | 3:48.45 | 54357 | 71501
6 | 15:53.27 | 4:07.10 | 71502 | 90036
7 | 20:00.37 | 5:46.33 | 90037 | 116019
8 | 25:46.70 | 10:41.22 | 116020 | 164116
9 | 36:28.17 | 3:08.68 | 164117 | 178284
10 | 39:37.10 | 1:22.57 | 178285 | 184491
11 | 40:59.67 | 4:34.20 | 184492 | 205061
12 | 45:34.12 | 4:23.43 | 205062 | 224829
13 | 49:57.55 | 1:05.62 | 224830 | 229766
14 | 51:03.42 | 1:28.55 | 229767 | 236421
15 | 52:32.22 | 6:41.00 | 236422 | 266496

Range status and errors

Selected range

Filename C:\CDRip by Deminbek\Queensryche – Operation- Mindcrime [Toshiba-EMI, CP32-5618, Japan].wav

Peak level 97.0 %
Extraction speed 7.3 X
Range quality 100.0 %
Test CRC 1D9F01F6
Copy CRC 1D9F01F6
Copy OK

No errors occurred

AccurateRip summary

Track 1 accurately ripped (confidence 6) [01977985] (AR v2)
Track 2 accurately ripped (confidence 6) [F8613865] (AR v2)
Track 3 accurately ripped (confidence 6) [2F787927] (AR v2)
Track 4 accurately ripped (confidence 6) [106FB55B] (AR v2)
Track 5 accurately ripped (confidence 6) [4B5823BA] (AR v2)
Track 6 accurately ripped (confidence 6) [658CCFED] (AR v2)
Track 7 accurately ripped (confidence 6) [176CE31F] (AR v2)
Track 8 accurately ripped (confidence 6) [B739323A] (AR v2)
Track 9 accurately ripped (confidence 6) [1F804E01] (AR v2)
Track 10 accurately ripped (confidence 6) [E8B3031F] (AR v2)
Track 11 accurately ripped (confidence 6) [AA4C422F] (AR v2)
Track 12 accurately ripped (confidence 6) [16EF5649] (AR v2)
Track 13 accurately ripped (confidence 6) [5F72C6FA] (AR v2)
Track 14 accurately ripped (confidence 6) [733812F9] (AR v2)
Track 15 accurately ripped (confidence 6) [BC813E13] (AR v2)

All tracks accurately ripped

End of status report

—- CUETools DB Plugin V2.1.3

[CTDB TOCID: Vm1VJY0Bz_UyAIC3N10eImJd.WA-] found, Submit result: Vm1VJY0Bz_UyAIC3N10eImJd.WA- has been confirmed
[d0328e74] (15/16) Accurately ripped
[5d6feaa2] (01/16) No match

==== Log checksum 86F7B6455ED2DC6160490455ED44B1405A53DDE25138041BCFF314C0A762A129 ====

REM GENRE “Heavy Metal”
REM DATE 1988
REM DISCID D80DE10F
REM COMMENT “ExactAudioCopy v1.0b3”
PERFORMER “Queensryche”
TITLE “Operation: Mindcrime (CP32-5618)”
FILE “Queensryche – Operation Mindcrime (CP32-5618).flac” WAVE
TRACK 01 AUDIO
TITLE “I Remember Now”
PERFORMER “Queensryche”
INDEX 01 00:00:00
TRACK 02 AUDIO
TITLE “Anarchy-X”
PERFORMER “Queensryche”
INDEX 01 01:18:05
TRACK 03 AUDIO
TITLE “Revolution Calling”
PERFORMER “Queensryche”
INDEX 01 02:45:47
TRACK 04 AUDIO
TITLE “Operation: Mindcrime”
PERFORMER “Queensryche”
INDEX 01 07:25:32
TRACK 05 AUDIO
TITLE “Speak”
PERFORMER “Queensryche”
INDEX 01 12:04:57
TRACK 06 AUDIO
TITLE “Spreading The Disease”
PERFORMER “Queensryche”
INDEX 01 15:53:27
TRACK 07 AUDIO
TITLE “The Mission”
PERFORMER “Queensryche”
INDEX 01 20:00:37
TRACK 08 AUDIO
TITLE “Suite Sister Mary”
PERFORMER “Queensryche”
INDEX 01 25:46:70
TRACK 09 AUDIO
TITLE “The Needle Lies”
PERFORMER “Queensryche”
INDEX 01 36:28:17
TRACK 10 AUDIO
TITLE “Electric Requiem”
PERFORMER “Queensryche”
INDEX 01 39:37:10
TRACK 11 AUDIO
TITLE “Breaking The Silence”
PERFORMER “Queensryche”
INDEX 01 40:59:67
TRACK 12 AUDIO
TITLE “I Don’t Believe In Love”
PERFORMER “Queensryche”
INDEX 01 45:34:12
TRACK 13 AUDIO
TITLE “Waiting For 22”
PERFORMER “Queensryche”
INDEX 01 49:57:55
TRACK 14 AUDIO
TITLE “My Empty Room”
PERFORMER “Queensryche”
INDEX 01 51:03:42
TRACK 15 AUDIO
TITLE “Eyes Of A Stranger”
PERFORMER “Queensryche”
INDEX 01 52:32:22


0

Publication author

offline 8 hours

Chaos

3
Comments: 4Publics: 3424Registration: 02-02-2019
Spread the Download

Leave a Reply

Your email address will not be published. Required fields are marked *

Enter the text from the image below
 

This site uses Akismet to reduce spam. Learn how your comment data is processed.